Files
TFD500 e86d2787f2 The Donscore Incident (2025, colorized)
- Lots of Donscore2TJA stuff fixed correctly with PeepoDrumKit.
- XEVIOUS Kantan and Futsuu fixed with big note being a 12th instead of a 4th/8th.
- Star Soldier Medley has its delay correctly applied.
- The Ultimate now has the correct TITLEJA.
2025-11-17 11:20:05 -05:00

397 lines
3.9 KiB
Plaintext

//TJADB Project
TITLE:Star Soldier Medley
TITLEJA:スターソルジャーメドレー
SUBTITLE:--Takeaki Kunimoto/Star Soldier
BPM:200
WAVE:Star Soldier Medley.ogg
OFFSET:-6.49574
DEMOSTART:49.635
COURSE:Oni
LEVEL:9
BALLOON:16,5
SCOREINIT:650
SCOREDIFF:150
NOTESDESIGNER3:Kuboken
#START
#SCROLL 0.75
500008000000000000000000500008000000000000000000,
500000000008000000000000500000000008000000000000,
5,
000000000000000000000000000000000008000000000000,
#BPMCHANGE 200.35
101100202200,
100101101202,
101100202200,
1022,
101100202200,
100101101202,
101200201200,
1022,
101100202200,
100101101202,
101100202200,
100000202102,
101100202200,
100101101202,
101200201200,
102100202102,
101222101200,
101101101100,
101222101200,
202202202200,
101222101200,
101101101100,
101222101200,
202202202200,
101222101202,
201202102101,
101222101202,
201202102111,
101222101202,
201202102101,
101222101202,
201200000000,
#GOGOSTART
#BPMCHANGE 150.25
#SCROLL 1
1020201020210120,
1020201020210120,
2202022011010110,
2202022011030300,
1020201020210120,
1020201020210120,
2202022011010110,
2202022011030300,
1011220101022010,
1022110102011020,
1011220101022010,
1022110102011020,
1212010122112211,
2212010122112211,
1212010122112211,
2212010122112211,
1022102211010000,
#MEASURE 3/4
#GOGOEND
0,
,
,
,
7,
#MEASURE 4/4
#GOGOSTART
0800000000000000,
1020201020210120,
2202022011010110,
2202022011030300,
#MEASURE 3/4
#GOGOEND
101201202202,
101201222202,
101201202202,
101202111102,
101201202202,
102201222200,
900008,
,
,
100111100202,
100222200202,
1,
,
,
#END
COURSE:Hard
LEVEL:6
BALLOON:16,5
SCOREINIT:740
SCOREDIFF:160
NOTESDESIGNER2:
#START
#SCROLL 0.75
580000580000,
500008000000500008000000,
5,
000000080000,
#BPMCHANGE 200.35
101100202200,
1112,
101100202200,
1022,
101100202200,
1122,
101200201200,
1022,
101100202200,
1112,
101100202200,
1022,
101100202200,
1122,
101200201200,
1,
11,
101101101100,
1212,
202202202200,
11,
101101101100,
1212,
202202202200,
101200101200,
2211,
101200101200,
2211,
101200101200,
2211,
101200201200,
201200000000,
#GOGOSTART
#BPMCHANGE 150.25
#SCROLL 1
1020201010220010,
1020201010220000,
1020102010201011,
1020102010020200,
1020201010220010,
1020201010220000,
1020102010201011,
1020102010020200,
1010100101022000,
1010100101012000,
1010100101022000,
1010100101012000,
100200100200500000000000000000000080000000000000,
200100200100500000000000000000000080000000000000,
100200100200500000000000000000000080000000000000,
200100200100500000000000000000000080000000000000,
2022202022020000,
#MEASURE 3/4
#GOGOEND
0,
,
,
,
7,
#MEASURE 4/4
#GOGOSTART
8,
1020201010220000,
1020102010201011,
1020102010020200,
#MEASURE 3/4
#GOGOEND
111100000000,
222200000000,
111100000000,
222200000000,
111100111100,
222200222200,
9008,
,
,
100111100200,
100222200200,
3,
,
,
#END
COURSE:Normal
LEVEL:4
BALLOON:8,6,6,6,6
SCOREINIT:1290
SCOREDIFF:360
NOTESDESIGNER1:
#START
#SCROLL 0.75
58,
58,
58,
68,
#BPMCHANGE 200.35
11,
1110,
11,
3,
11,
1110,
11,
3,
11,
1111,
11,
3,
11,
1111,
11,
3,
1110,
1110,
1110,
2220,
1110,
1110,
1110,
2220,
11,
2211,
11,
1110,
11,
2211,
11,
3,
#GOGOSTART
#BPMCHANGE 150.25
#SCROLL 1
58,
58,
1111,
1111,
58,
58,
1111,
1110,
1202,
0202,
1202,
0202,
58,
68,
58,
68,
3330,
#MEASURE 3/4
#GOGOEND
0,
,
,
,
700008,
#MEASURE 4/4
#GOGOSTART
0,
,
1111,
1111,
#MEASURE 3/4
#GOGOEND
900008,
,
900008,
,
900008,
,
900008,
,
,
33,
44,
6,
080,
,
#END
COURSE:Easy
LEVEL:5
BALLOON:6,5,5,5,5
SCOREINIT:1020
SCOREDIFF:280
NOTESDESIGNER0:
#START
#SCROLL 0.75
58,
58,
58,
68,
#BPMCHANGE 200.35
1,
1110,
1,
3,
1,
1110,
1,
3,
11,
1110,
11,
3,
11,
1110,
11,
3,
1110,
1,
1110,
1,
1110,
1,
2220,
1,
1110,
1110,
1110,
2220,
1110,
1110,
1110,
3,
#GOGOSTART
#BPMCHANGE 150.25
#SCROLL 1
58,
58,
1111,
1110,
58,
58,
1111,
1110,
0101,
0202,
0101,
0202,
58,
68,
58,
68,
3330,
#MEASURE 3/4
#GOGOEND
0,
,
,
,
700008,
#MEASURE 4/4
#GOGOSTART
0,
,
1111,
1110,
#MEASURE 3/4
#GOGOEND
900008,
,
900008,
,
900008,
,
900008,
,
,
33,
33,
6,
080,
,
#END