Add Traditional Chinese title (1276 charts) and subtitle (900 charts) header fields. Header additions only; no chart data changed. Co-Authored-By: Claude Opus 5 <noreply@anthropic.com>
458 lines
6.5 KiB
Plaintext
458 lines
6.5 KiB
Plaintext
//TJADB Project
|
|
TITLE:Super Mario Bros. Medley -New Version-
|
|
TITLEJA:スーパーマリオブラザーズ(新)
|
|
TITLEZH_TW:スーパーマリオブラザーズ
|
|
SUBTITLE:--Koji Kondo/Super Mario Bros.
|
|
BPM:100.17
|
|
WAVE:Super Mario Bros Medley New Version.ogg
|
|
OFFSET:-2.607
|
|
DEMOSTART:2.607
|
|
SCENEPRESET:MARIO
|
|
|
|
COURSE:Oni
|
|
LEVEL:8
|
|
SCOREINIT:530
|
|
SCOREDIFF:143
|
|
|
|
|
|
#START
|
|
|
|
|
|
1102011020003000,
|
|
1001201001020110,
|
|
100010002000100000200100000100000100200100000000,
|
|
1001201001020210,
|
|
100010002000100000200100000100000100200100000000,
|
|
1011210101121122,
|
|
1022120102022010,
|
|
1011210101121122,
|
|
1030030040012010,
|
|
1011210101121122,
|
|
1022120102022010,
|
|
1011210101121122,
|
|
1030030040012010,
|
|
1121021012012210,
|
|
1211021210210210,
|
|
1121021012012210,
|
|
1102011020003000,
|
|
#MEASURE 3/4
|
|
#BPMCHANGE 112.68
|
|
#SCROLL 0.89
|
|
600000000000000008000000000000000000,
|
|
#BPMCHANGE 100.16
|
|
#SCROLL 1
|
|
121211000000,
|
|
112211000000,
|
|
121211000000,
|
|
100100200200100100000000000000101010,
|
|
112212,
|
|
111111102020101020,
|
|
4,
|
|
121211200000,
|
|
112211200000,
|
|
121211200000,
|
|
100100200200100100200000000000101010,
|
|
112212,
|
|
111111102020101020,
|
|
300000600000000008000000000000000000,//32
|
|
|
|
#BPMCHANGE 150.27
|
|
#MEASURE 4/4
|
|
#GOGOSTART
|
|
100200100201001001101100,
|
|
100200100102001002202200,
|
|
100200100201001001101100,
|
|
100200100201001002202200,
|
|
100200100201001001101100,
|
|
100200100201001002202200,
|
|
600000000000000008000000000000000000000000000000,//39
|
|
|
|
#GOGOEND
|
|
#BPMCHANGE 112.68
|
|
#MEASURE 3/4
|
|
112122,
|
|
112010102220,
|
|
101020101120,
|
|
102020112121,
|
|
101020101120,
|
|
102020102021,
|
|
101020101120,
|
|
102020112121,
|
|
101020101120,
|
|
102020102021,
|
|
101020101120,
|
|
102020112021,
|
|
101020101120,
|
|
102020112021,
|
|
101020101120,
|
|
111021100000,//55
|
|
|
|
#BPMCHANGE 180.15
|
|
#MEASURE 4/4
|
|
#GOGOSTART
|
|
0102010201020102,
|
|
0102010201020102,
|
|
0101020201010202,
|
|
0101020201010202,
|
|
0122210201222102,
|
|
0122210201222102,
|
|
0102010201020102,
|
|
0102010201020102,
|
|
0101020201010202,
|
|
0101020201010202,
|
|
0122210201222100,
|
|
500000000000000000000000000000000008000000000000,//67
|
|
|
|
#GOGOEND
|
|
#BPMCHANGE 150.27
|
|
101020101020101110101010,
|
|
101020101020102220202020,
|
|
#MEASURE 3/4
|
|
101020101020101110,
|
|
|
|
#MEASURE 6/4
|
|
100100100500000000000008000000101020,
|
|
#MEASURE 4/4
|
|
1011,
|
|
100000100202,
|
|
1111,
|
|
21,
|
|
|
|
|
|
#END
|
|
|
|
|
|
COURSE:Hard
|
|
LEVEL:7
|
|
|
|
#START
|
|
1101011010003000,
|
|
1002001001010110,
|
|
100010001000100000100100000100000100100100000000,
|
|
1002001001010110,
|
|
100010001000100000100100000200000100100100000000,
|
|
1001101010011020,
|
|
1001101002022000,
|
|
1001101010011020,
|
|
0030030040000000,
|
|
1001101010011020,
|
|
1001101002022000,
|
|
1001101010011020,
|
|
0030030040000000,
|
|
1101011022011000,
|
|
1101011100000000,
|
|
1101011022011000,
|
|
1101011010003000,
|
|
#MEASURE 3/4
|
|
#BPMCHANGE 112.68
|
|
#SCROLL 0.89
|
|
600000000000000008000000000000000000,
|
|
#BPMCHANGE 100.16
|
|
#SCROLL 1
|
|
111111000000,
|
|
222222000000,
|
|
111111000000,
|
|
222222000000,
|
|
112212,
|
|
500000000000000000000000008000000000,
|
|
4,
|
|
111111000000,
|
|
121212000000,
|
|
111111000000,
|
|
121212000000,
|
|
112212,
|
|
500000000000000000000000008000000000,
|
|
300000600000000008000000000000000000,//32
|
|
|
|
#BPMCHANGE 150.27
|
|
#MEASURE 4/4
|
|
#GOGOSTART
|
|
100000200001001000200200,
|
|
100100200001001000200000,
|
|
100000200001001000200200,
|
|
100100200001001000200000,
|
|
100000200001001000200200,
|
|
100100200001001000200000,
|
|
600000000000000008000000000000000000000000000000,//39
|
|
|
|
#GOGOEND
|
|
#BPMCHANGE 112.68
|
|
#MEASURE 3/4
|
|
112122,
|
|
111010100000,
|
|
122122,
|
|
102020101111,
|
|
122122,
|
|
102020102011,
|
|
122122,
|
|
102020101111,
|
|
122122,
|
|
102020102011,
|
|
102020102220,
|
|
102020111001,
|
|
102020102220,
|
|
102020111001,
|
|
122112,
|
|
111001100000,//55
|
|
|
|
#BPMCHANGE 180.15
|
|
#MEASURE 4/4
|
|
#GOGOSTART
|
|
0102010201020100,
|
|
0102010201020100,
|
|
0101020201010200,
|
|
0101020201010200,
|
|
0102010201020100,
|
|
0102010201020100,
|
|
0101020201010200,
|
|
0101020201010200,
|
|
0102010201020102,
|
|
0102010201020102,
|
|
0102010201020100,
|
|
500000000000000000000000000000000008000000000000,//67
|
|
|
|
#GOGOEND
|
|
#BPMCHANGE 150.27
|
|
111111100000,
|
|
111111100000,
|
|
#MEASURE 3/4
|
|
111111100,
|
|
|
|
#MEASURE 6/4
|
|
100100100500000000000008000000101010,
|
|
#MEASURE 4/4
|
|
1011,
|
|
1012,
|
|
1111,
|
|
21,
|
|
,
|
|
,
|
|
,
|
|
,
|
|
,
|
|
,
|
|
#END
|
|
|
|
COURSE:Normal
|
|
LEVEL:5
|
|
BALLOON:8
|
|
|
|
#START
|
|
0003,
|
|
1001001000000000,
|
|
10110010,
|
|
1001001000000000,
|
|
10110010,
|
|
0010100100000000,
|
|
0020200200000000,
|
|
0010100100000000,
|
|
0030030030000000,
|
|
0010100100000000,
|
|
0020200200000000,
|
|
0010100100000000,
|
|
0030030030000000,
|
|
10011000,
|
|
10022000,
|
|
10011000,
|
|
10011030,
|
|
#MEASURE 3/4
|
|
#BPMCHANGE 112.68
|
|
#SCROLL 0.89
|
|
,
|
|
#BPMCHANGE 100.16
|
|
#SCROLL 1
|
|
111010,
|
|
222200,
|
|
111100,
|
|
222200,
|
|
111,
|
|
500000000000000000000000000000000008,
|
|
,
|
|
111000,
|
|
333000,
|
|
111000,
|
|
333000,
|
|
111,
|
|
500000000000000000000000000000000008,
|
|
,//32
|
|
|
|
#BPMCHANGE 150.27
|
|
#MEASURE 4/4
|
|
#GOGOSTART
|
|
1202,
|
|
1200,
|
|
1202,
|
|
1200,
|
|
1202,
|
|
1200,
|
|
600000000000000008000000000000000000000000000000,//39
|
|
|
|
#GOGOEND
|
|
#BPMCHANGE 112.68
|
|
#MEASURE 3/4
|
|
11,
|
|
500000000000000008000000000000000000,
|
|
11,
|
|
1,
|
|
110110,
|
|
1,
|
|
11,
|
|
1,
|
|
110110,
|
|
1,
|
|
110110,
|
|
12,
|
|
110110,
|
|
12,
|
|
100111,
|
|
500000000000000000000000000008000000,//55
|
|
|
|
#BPMCHANGE 180.15
|
|
#MEASURE 4/4
|
|
#GOGOSTART
|
|
0100010001000000,
|
|
0100010001000000,
|
|
0200020002000000,
|
|
0200020002000000,
|
|
0100010001000100,
|
|
0100010001000000,
|
|
0100010001000000,
|
|
0100010001000000,
|
|
0200020002000000,
|
|
0200020002000000,
|
|
0100010001000100,
|
|
500000000000000000000000000000000008000000000000,//67
|
|
|
|
#GOGOEND
|
|
#BPMCHANGE 150.27
|
|
1110,
|
|
1120,
|
|
#MEASURE 3/4
|
|
111,
|
|
#MEASURE 6/4
|
|
700080,
|
|
#MEASURE 4/4
|
|
1011,
|
|
1012,
|
|
1111,
|
|
21,
|
|
,
|
|
,
|
|
,
|
|
,
|
|
,
|
|
,
|
|
#END
|
|
|
|
COURSE:Easy
|
|
LEVEL:4
|
|
BALLOON:6
|
|
|
|
#START
|
|
0003,
|
|
11,
|
|
1110,
|
|
11,
|
|
1110,
|
|
12,
|
|
13,
|
|
12,
|
|
0030030030000000,
|
|
12,
|
|
13,
|
|
12,
|
|
0030030030000000,
|
|
13,
|
|
12,
|
|
13,
|
|
0003,
|
|
#MEASURE 3/4
|
|
#BPMCHANGE 112.68
|
|
#SCROLL 0.89
|
|
,
|
|
#BPMCHANGE 100.16
|
|
#SCROLL 1
|
|
3,
|
|
111000,
|
|
111000,
|
|
111000,
|
|
111,
|
|
500000000000000000000000000000000008,
|
|
,
|
|
111000,
|
|
111000,
|
|
111000,
|
|
111000,
|
|
111,
|
|
500000000000000000000000000000000008,
|
|
,//32
|
|
|
|
#BPMCHANGE 150.27
|
|
#MEASURE 4/4
|
|
#GOGOSTART
|
|
1202,
|
|
0200,
|
|
1202,
|
|
0200,
|
|
1202,
|
|
0200,
|
|
,//39
|
|
|
|
#GOGOEND
|
|
#BPMCHANGE 112.68
|
|
#MEASURE 3/4
|
|
11,
|
|
500000000000000008000000000000000000,
|
|
11,
|
|
1,
|
|
11,
|
|
2,
|
|
11,
|
|
1,
|
|
11,
|
|
2,
|
|
11,
|
|
12,
|
|
11,
|
|
12,
|
|
11,
|
|
500000000000000000000008000000000000,//55
|
|
|
|
#BPMCHANGE 180.15
|
|
#MEASURE 4/4
|
|
#GOGOSTART
|
|
0100000000000000,
|
|
0100000000000000,
|
|
0200000000000000,
|
|
0200000000000000,
|
|
0100000001000000,
|
|
0100000001000000,
|
|
0100000000000000,
|
|
0100000000000000,
|
|
0200000000000000,
|
|
0200000000000000,
|
|
0100000001000000,
|
|
500000000000000000000000000000000008000000000000,//67
|
|
|
|
#GOGOEND
|
|
#BPMCHANGE 150.27
|
|
11,
|
|
12,
|
|
#MEASURE 3/4
|
|
101,
|
|
|
|
#MEASURE 6/4
|
|
708,
|
|
#MEASURE 4/4
|
|
1011,
|
|
11,
|
|
1110,
|
|
11,
|
|
,
|
|
,
|
|
,
|
|
,
|
|
,
|
|
,
|
|
#END
|