401 lines
4.6 KiB
Plaintext
401 lines
4.6 KiB
Plaintext
//TJADB Project
|
|
TITLE:Suteki-nanoka de Parade
|
|
TITLEJA:ステキナノカデパレード
|
|
SUBTITLE:--Katamari Damacy Rolling LIVE
|
|
SUBTITLEJA:「塊魂 Rolling LIVE」より
|
|
BPM:140
|
|
WAVE:Sutekinanoka de Parade.ogg
|
|
OFFSET:-2.266
|
|
DEMOSTART:68.253
|
|
|
|
|
|
COURSE:Oni
|
|
LEVEL:9
|
|
BALLOON:
|
|
SCOREINIT:480,1440
|
|
SCOREDIFF:120
|
|
|
|
#START
|
|
2222,
|
|
20202022,
|
|
0020002222221111,
|
|
1021021021022110, //4
|
|
|
|
#GOGOSTART
|
|
3010220211102201,
|
|
2020101120102011,
|
|
100100222222111111222222,
|
|
500000000008000000200200100100200200100100100100,
|
|
|
|
1010220211102202,
|
|
1020101120102030,
|
|
01130113,
|
|
000000200200100100100100200200200200101010101010, //12
|
|
#GOGOEND
|
|
|
|
1020101120201020,
|
|
1022202011201000,
|
|
1020101120201110,
|
|
03344340,
|
|
|
|
1020101120201020,
|
|
1022202011201010,
|
|
2020111020201110,
|
|
03344340, //20
|
|
|
|
20202221,
|
|
2011102011201000,
|
|
1020101120201110,
|
|
03344340,
|
|
|
|
1020101120201020,
|
|
1022202011201011,
|
|
1020111020201110,
|
|
000300300400400300400111, //28
|
|
|
|
10212121,
|
|
200100200100200000101010202020202020101010101010,
|
|
2010201020101110,
|
|
1112102211104000,
|
|
|
|
10212121,
|
|
2010221022101010,
|
|
0010111000101150,
|
|
#MEASURE 2/4
|
|
000000000008000000000000,
|
|
|
|
#MEASURE 4/4
|
|
301210301210,
|
|
3001200120002022,
|
|
2020101040221110, //39
|
|
|
|
#GOGOSTART
|
|
1011201211102012,
|
|
1011201211202011,
|
|
100000100100200000100200100100100000200000101010,
|
|
1020200120112010,
|
|
|
|
1011201211102012,
|
|
1011201211202011,
|
|
2021202210212022,
|
|
100000200100200200100000200200100100202020202020, //47
|
|
|
|
1011201211102012,
|
|
1011201211202012,
|
|
1011201211102012,
|
|
1020200120112010,
|
|
|
|
1011201211102012,
|
|
1011201211202012,
|
|
1111202212112011,
|
|
500000000008000000100100100000200200100100200000,
|
|
2210221022102210,
|
|
600000000000000000000000000000000008000000000100, //57
|
|
|
|
2010220211102201,
|
|
2020101120102011,
|
|
1020112210221110,
|
|
100111200111200111222222,
|
|
|
|
1010220211102201,
|
|
1020101120102030,
|
|
01130113,
|
|
000000200200100100100100200200200200101010101010,
|
|
#GOGOEND
|
|
2,
|
|
0, //67
|
|
#END
|
|
|
|
|
|
COURSE:Hard
|
|
LEVEL:6
|
|
BALLOON:13,15
|
|
SCOREINIT:660,2680
|
|
SCOREDIFF:183
|
|
|
|
#START
|
|
2222,
|
|
20202022,
|
|
0,
|
|
2, //4
|
|
|
|
#GOGOSTART
|
|
1000200110002001,
|
|
5,
|
|
000000000000000008000000200000000000100000000000,
|
|
1000201011101000,
|
|
|
|
1000111010002000,
|
|
1010001110002010,
|
|
01110117,
|
|
00000008, //12
|
|
#GOGOEND
|
|
|
|
10202021,
|
|
02201020,
|
|
10202201,
|
|
03333330,
|
|
|
|
10202021,
|
|
02201020,
|
|
11101111,
|
|
03333330, //20
|
|
|
|
20202022,
|
|
02201020,
|
|
10202021,
|
|
03333330,
|
|
|
|
10202021,
|
|
02201020,
|
|
11101111,
|
|
03333330, //28
|
|
|
|
10111011,
|
|
00202011,
|
|
1000101000101110,
|
|
0223,
|
|
|
|
00111011,
|
|
00202111,
|
|
01110115,
|
|
#MEASURE 2/4
|
|
000000000008000000000000,
|
|
|
|
#MEASURE 4/4
|
|
333333,
|
|
600000000000000000000008000000000000200000000000,
|
|
22222000, //39
|
|
|
|
#GOGOSTART
|
|
1020100110102000,
|
|
1020100110102020,
|
|
11201121,
|
|
0020200220102000,
|
|
|
|
1020100110102000,
|
|
1020100110102001,
|
|
1010100010011000,
|
|
1022200220102000, //47
|
|
|
|
1020100110102000,
|
|
1020100110102020,
|
|
11201121,
|
|
0020200220102000,
|
|
|
|
1020100110102000,
|
|
1020100110102020,
|
|
1110202011102020,
|
|
500000000008000000100100100000000000000000000000,
|
|
11221122,
|
|
600000000000000000000000000000000008000000000100, //57
|
|
|
|
1000200110002001,
|
|
5,
|
|
000008000000000000200000100000200000100000000000,
|
|
10201122,
|
|
|
|
1000111010002000,
|
|
1020101110001010,
|
|
01110119,
|
|
000000000000000009000000,
|
|
#GOGOEND
|
|
8,
|
|
0, //67
|
|
#END
|
|
|
|
|
|
COURSE:Normal
|
|
LEVEL:5
|
|
BALLOON:16,15,21
|
|
SCOREINIT:930,4920
|
|
SCOREDIFF:303
|
|
|
|
#START
|
|
22,
|
|
20002022,
|
|
0,
|
|
2, //4
|
|
|
|
#GOGOSTART
|
|
1210,
|
|
6,
|
|
000000000008000000000000100000000000100000000000,
|
|
1022,
|
|
|
|
1210,
|
|
11001007,
|
|
0,
|
|
08, //12
|
|
#GOGOEND
|
|
|
|
10101001,
|
|
0110,
|
|
10101001,
|
|
0033,
|
|
|
|
10101001,
|
|
0110,
|
|
10101001,
|
|
0033, //20
|
|
|
|
20001001,
|
|
0110,
|
|
10101001,
|
|
0033,
|
|
|
|
10101001,
|
|
0110,
|
|
10101001,
|
|
0033, //28
|
|
|
|
00101011,
|
|
0001,
|
|
10100111,
|
|
0003,
|
|
|
|
00101011,
|
|
00000700,
|
|
0,
|
|
#MEASURE 2/4
|
|
0800,
|
|
|
|
#MEASURE 4/4
|
|
33,
|
|
600000000000000000000008000000000000200000000000,
|
|
20222000, //39
|
|
|
|
#GOGOSTART
|
|
1212,
|
|
1121,
|
|
11101110,
|
|
02202000,
|
|
|
|
1212,
|
|
1121,
|
|
11101110,
|
|
02202000, //47
|
|
|
|
1212,
|
|
1121,
|
|
11101110,
|
|
02202000,
|
|
|
|
1212,
|
|
1121,
|
|
22202220,
|
|
10011000,
|
|
30303033,
|
|
600000000000000000000000000000000008000000000000, //57
|
|
|
|
41,
|
|
6,
|
|
000008000000000000000000100000000000100000000000,
|
|
22,
|
|
|
|
1210,
|
|
11011019,
|
|
0,
|
|
000000000009000000000000,
|
|
#GOGOEND
|
|
8,
|
|
0, //67
|
|
#END
|
|
|
|
|
|
COURSE:Easy
|
|
LEVEL:3
|
|
BALLOON:13,13,13,12,17
|
|
SCOREINIT:830,7700
|
|
SCOREDIFF:305
|
|
|
|
#START
|
|
2,
|
|
20000002,
|
|
0,
|
|
2, //4
|
|
|
|
#GOGOSTART
|
|
11,
|
|
6,
|
|
000008000000000000000000100000000000100000000000,
|
|
11,
|
|
|
|
11,
|
|
01001007,
|
|
0,
|
|
08, //12
|
|
#GOGOEND
|
|
|
|
1110,
|
|
11,
|
|
1110,
|
|
13,
|
|
|
|
1110,
|
|
11,
|
|
7,
|
|
00000800, //20
|
|
|
|
20000001,
|
|
01,
|
|
1110,
|
|
22,
|
|
|
|
1110,
|
|
11,
|
|
7,
|
|
00000800, //28
|
|
|
|
00101001,
|
|
0,
|
|
10100001,
|
|
0003,
|
|
|
|
00101001,
|
|
00000700,
|
|
0,
|
|
#MEASURE 2/4
|
|
0800,
|
|
|
|
#MEASURE 4/4
|
|
33,
|
|
600000000000000000000000000008000000000000000000,
|
|
22, //39
|
|
|
|
#GOGOSTART
|
|
1110,
|
|
1110,
|
|
1111,
|
|
02,
|
|
|
|
1110,
|
|
1110,
|
|
1111,
|
|
02, //47
|
|
|
|
1110,
|
|
1110,
|
|
1111,
|
|
02,
|
|
|
|
1110,
|
|
1110,
|
|
2222,
|
|
21,
|
|
3333,
|
|
600000000000000000000000000008000000000000000000, //57
|
|
|
|
41,
|
|
6,
|
|
000008000000000000000000100000000000100000000000,
|
|
0,
|
|
|
|
11,
|
|
01001009,
|
|
0,
|
|
000000000009000000000000,
|
|
#GOGOEND
|
|
8,
|
|
0, //67
|
|
#END |