Files
2023-06-15 19:00:23 -05:00

724 lines
22 KiB
Plaintext

//TJADB Project
TITLE:Symphonic Valkyrie
TITLEJA:シンフォニック ワルキューレ
SUBTITLE:--Katsuro Tajima/The Valkyrie Series
BPM:124.33
WAVE:Symphonic Valkyrie.ogg
OFFSET:-2.212
DEMOSTART:107.956
COURSE:Oni
LEVEL:7
BALLOON:22,26,66,32
SCOREINIT:610
SCOREDIFF:148
#START
#GOGOSTART
300000000000100010001000100000000000000000000000,
#BPMCHANGE 124.33
#SCROLL 0.99
300000000000100010001000100000000000100010002000,
#BPMCHANGE 123.59
#SCROLL 1
100000000000100000000000100000000000100020002000,
#BPMCHANGE 123.68
100000000000100000101000100010001000100020002000,
#BPMCHANGE 124.33
500000000000000000000000000080000000100020002000,
#BPMCHANGE 124.05
500000000000000000000000000080000000100020002000,
#BPMCHANGE 124.61
#SCROLL 0.99
200010001000200010001000200000000000100000000000,
400000000000100010001000100000000000000000000000,
#GOGOEND
#BPMCHANGE 124.08
#SCROLL 1
100000000000200000000000100000000000100010001000,
#BPMCHANGE 123.2
100000000000200000000000100000000000100010001000,
#BPMCHANGE 124.21
100000000000100010001000100000000000100010001000,
#BPMCHANGE 124.45
#SCROLL 0.99
100000000000000000000000100020002000200020002000,
#BPMCHANGE 123.78
#SCROLL 1
100000000000300000000000400000000000200020002000,
100000000000300000000000400000000000200000002000,
#BPMCHANGE 124.4
#SCROLL 0.99
100000100000200000200000100000100000200000200000,
100000100000200000200000300000400000300000000000,
#BPMCHANGE 124.75
300000000000100010001000300000000000000000000000,
#BPMCHANGE 138.55
#SCROLL 0.89
200200200200000000000000100100100100000000000000,
#MEASURE 5/4
#BPMCHANGE 141.19
#SCROLL 0.88
100200100200100000000000200100200100200000000000
#BPMCHANGE 141.01
200000000000,
#MEASURE 6/4
#BPMCHANGE 138.04
#SCROLL 0.9
200200100200100200100000100000400000000000000000000000000000000000000000,
#MEASURE 3/4
#BPMCHANGE 140.09
#SCROLL 0.88
100000200000200000100000200000200000,
100000200000200000100000200000200000,
#BPMCHANGE 141.1
100000200000200000100000200000200000,
#BPMCHANGE 142.55
#SCROLL 0.87
100000200000200000100000200000200000,
#BPMCHANGE 141.13
#SCROLL 0.88
300000100000200000300000200000200000,
#BPMCHANGE 139.25
#SCROLL 0.89
300000100000200000300000200000200000,
300000100000200000300000200000200000,
#BPMCHANGE 141.55
#SCROLL 0.87
300000100000200000300000400000400000,
#BPMCHANGE 138.16
#SCROLL 0.89
000000000000000000000000000000000000,
#MEASURE 4/4
#BPMCHANGE 174.33
#SCROLL 1
100000100000200000200000100000100000200000200000,
#BPMCHANGE 173.9
100000100000200000200000100000000000200000100000,
#BPMCHANGE 174.11
100000100000200000200000100000100000200000200000,
100000100000200000200000100000000000200000100000,
100000100000200000200000100000100000200000200000,
#BPMCHANGE 174.33
100000100000200000200000100000000000200000000000,
#BPMCHANGE 172.71
100000000000000000200000100000100000200000200000,
#BPMCHANGE 172.98
100000100000100000000000200000000000100000200000,
#BPMCHANGE 175.71
#SCROLL 0.99
100000000000000000200000500000000000000080000000,
#BPMCHANGE 174.12
#SCROLL 1
100000100000200000200000100000100000200200200000,
100000000000000000200000500000000000000080000000,
#BPMCHANGE 173.41
100000100000200000200000100000000000200000000000,
#BPMCHANGE 172.98
100000000000000000100000500000000000000000000000,
#BPMCHANGE 174.06
000000000000000000000000000000000080000000000000,
#BPMCHANGE 173.52
100000000000000000200000200000000000100100100000,
#BPMCHANGE 176.82
#SCROLL 0.98
200000200000100000100000100000000000200000000000,
#BPMCHANGE 174.06
#SCROLL 1
100000000000000000100000100000200200200000200000,
#BPMCHANGE 175.16
#SCROLL 0.99
100000100000200000200000100000100000200000000000,
#BPMCHANGE 174.06
#SCROLL 1
100000000000000000200000200000000000100100100000,
#BPMCHANGE 171.38
#SCROLL 1.01
200000200000100000100000100000000000200000000000,
#BPMCHANGE 175.99
#SCROLL 0.99
100100100100100000000000200200200200200000000000,
#BPMCHANGE 174.33
#SCROLL 1
100000000000400000000000100000000000400000000000,
100000000000000000200000200000000000100100100000,
#BPMCHANGE 173.79
200000200000100000100000100000000000200000000000,
#BPMCHANGE 173.11
100000000000000000100000100000100000200000000000,
100000000000000000200000200000000000000000000000,
#BPMCHANGE 173.65
100000000000000000200000500000000000000000000000,
#BPMCHANGE 174.74
#SCROLL 0.99
000000000080000000000000300000000000300000000000,
#BPMCHANGE 174.06
#SCROLL 1
600000000000000000000000000000000080000000000000,
#GOGOSTART
#BPMCHANGE 166.27
#SCROLL 1.04
300000000000000000300000000000000000300000000000,
#BPMCHANGE 171.65
#SCROLL 1.01
700000000000000000000000000000000000000000000000,
#BPMCHANGE 174.88
#SCROLL 0.99
000000800000000000000000400000000000400000000000,
#BPMCHANGE 171.91
#SCROLL 1.01
700000000000000000000000000000000000000000000000,
#BPMCHANGE 164.79
#SCROLL 1.05
000000800000000000000000
#BPMCHANGE 161.92
#SCROLL 1.07
300000000000400000000000,
#BPMCHANGE 177.1
#SCROLL 0.98
700000000000000000000000000000000000000000000000,
#BPMCHANGE 175.43
#SCROLL 0.99
000000000000000000000000000000000000000000000000,
#BPMCHANGE 173.92
#SCROLL 1
000000000000000000000000000000000000000000000000,
#BPMCHANGE 172.71
000000000000000000000000
#BPMCHANGE 152.6
#SCROLL 1.14
000800000000000000000000,
#GOGOEND
#MEASURE 3/4
#BPMCHANGE 165.11
#SCROLL 1.05
300000000000200000000000200000000000,
#BPMCHANGE 168.2
#SCROLL 1.03
200000000000100000000000200000000000,
#GOGOSTART
#BPMCHANGE 177.11
#SCROLL 0.98
300000000000200200200000100000000000,
#BPMCHANGE 176.12
300000000000200000000000200000000000,
300000000000200000000000200000000000,
300000000000200000000000200200200000,
300000000000200000000000200000000000,
300000000000200000000000200200200000,
300000000000200000000000200000000000,
300000000000200000000000200000200200,
100000000000200000100000100000000000,
#BPMCHANGE 175.03
#SCROLL 0.99
100000000000200000000000200000000000,
#BPMCHANGE 167.6
#SCROLL 1.04
100000000000300000000000400000000000,
#BPMCHANGE 166.18
400000000000300000000000400000400000,
#BPMCHANGE 176.12
#SCROLL 0.98
300000000000200200200000100000000000,
300000000000200000000000300000000000,
300000000000200000000000400000000000,
300000000000200000000000400000000000,
300000000000200200200000300000000000,
300000000000200000000000300000000000,
300000000000200000000000400000000000,
#MEASURE 7/4
#BPMCHANGE 172.11
#SCROLL 1.01
300000000000200000000000400000000000
#BPMCHANGE 74.65
#SCROLL 2.31
400
#GOGOEND
#SCROLL 1
000000000000000000000000000000000100000001000,
#MEASURE 4/4
#BPMCHANGE 80.26
#SCROLL 0.93
500000000000000080000000100000100000100000100000,
#BPMCHANGE 85.21
#SCROLL 0.87
500000000000000000000000000080000000100000001000,
#BPMCHANGE 91.46
#SCROLL 0.81
100000000000100000000000300000000000100010001000,
#MEASURE 6/4
#BPMCHANGE 96.7
#SCROLL 0.77
500000000000000000000000000000000080000000000000
#BPMCHANGE 100.9
#SCROLL 0.73
300000000000400000000000,
#MEASURE 4/4
#BPMCHANGE 100.07
#SCROLL 0.74
900000000000000000000000000000000000000000000008,
#END
COURSE:Hard
LEVEL:5
BALLOON:12,12,12,32,30
SCOREINIT:730
SCOREDIFF:190
#START
#GOGOSTART
#BPMCHANGE 124
300000000000100010001000100000000000000000000000,
300000000000100010001000100000000000000000000000,
300000000000100000000000100000000000100010001000,
100000000000300000000000300000000000300000000000,
500000000000000000000000008000000000000000000000,
500000000000000000000000008000000000000000000000,
100000001000100000001000100000000000100000000000,
300000000000000000000000000000000000000000000000,
#GOGOEND
200000000000200000000000200000000000200000002000,
200000000000200000000000200000000000200000002000,
200000000000200000000000200000000000200000000000,
200000000000000000000000000000000000000000000000,
300000000000100010001000100000000000000000000000,
300000000000100010001000100000000000000000000000,
100000000000100000100000100000000000100000100000,
100000000000100000100000300000000000300000000000,
300000000000000000000000000000000000000000000000,
#BPMCHANGE 140
#SCROLL 0.89
400000000000000000000000000000000000000000000000,
#MEASURE 5/4
400000000000000000000000000000000000000000000000000000000000,
#MEASURE 6/4
700000000000000000000000000000000000000000000000000000008000000000000000,
#MEASURE 3/4
200000000000200000200000000000200000,
200000000000200000200000000000200000,
200000000000200000200000000000200000,
200000000000200000200000000000000000,
300000000000300000300000000000000000,
300000000000400000400000000000000000,
300000000000300000300000000000000000,
300000000000400000400000400000400000,
000000000000000000000000000000000000,
#MEASURE 4/4
#BPMCHANGE 174
#SCROLL 1
200000000000200000200000200000000000200000200000,
200000000000200000200000200000000000200000000000,
200000000000200000200000200000000000200000200000,
200000000000200000200000200000000000200000000000,
200000000000200000200000200000000000200000200000,
200000000000200000200000200000000000200000000000,
100000000000000000100000500000000000000000000000,
008000000000100000000000100000000000100000100000,
100000000000000000100000500000000000000000000000,
000000000000000000000000008000000000000000000000,
100000000000000000100000500000000000000000000000,
000000000000008000000000100000000000100000000000,
100000000000000000100000500000000000000000000000,
000000000000000000000000000000008000000000000000,
100000000000100000000000200000000000100000000000,
100000000000100000100000100000000000200000000000,
100000000000100000000000200000000000100000000000,
100000100000100000000000100000000000000000000000,
100000000000100000000000200000000000100000000000,
100000000000100000100000100000000000100000000000,
300000000000400000000000300000000000400000000000,
300000000000300000000000300000000000300000000000,
200000000000000000200000500000000000000000000000,
000000000000008000000000200000000000200000000000,
200000000000000000200000500000000000000000000000,
000000000000000000000000000000008000000000000000,
200000000000000000200000500000000000000000000000,
000000008000000000000000300000000000300000000000,
600000000000000000000000000000008000000000000000,
#GOGOSTART
300000000000000000300000000000000000300000000000,
700000000000000000000000000000000000000000000000,
000000008000000000000000400000000000400000000000,
700000000000000000000000000000000000000000000000,
#BPMCHANGE 165
#SCROLL 1.05
000000008000000000000000300000000000300000000000,
900000000000000000000000000000000000000000000000,
000000000000000000000000000000000000000000000000,
000000000000000000000000000000000000000000000000,
000000000000000000000000000000008000000000000000,
#GOGOEND
#MEASURE 3/4
#BPMCHANGE 174
#SCROLL 1
000000000000000000000000000000000000,
000000000000000000000000000000000000,
#GOGOSTART
#BPMCHANGE 176
300000000000200000200000200000000000,
100000000000100000000000200000000000,
300000000000200000200000200000000000,
300000000000100000100000100000000000,
100000000000200000200000200000000000,
100000000000100000000000200000000000,
300000000000200000200000200000000000,
100000000000100000000000200000000000,
300000000000000000000000600000000000,
000000000000000000000000000000008000,
000000000000000000000000000000000000,
#BPMCHANGE 158
#SCROLL 1.11
000000000000000000000000000000000000,
#BPMCHANGE 176
#SCROLL 1
300000000000200000200000200000000000,
100000000000100000000000200000000000,
300000000000200000200000200000000000,
300000000000100000000000200000000000,
100000000000100000100000100000000000,
100000000000100000000000200000000000,
100000000000200000200000200000000000,
100000000000100000000000100000000000,
#GOGOEND
#MEASURE 4/4
#BPMCHANGE 73
#SCROLL 2.41
400000000000000000000000000000000000
#SCROLL 1
000000000000,
#BPMCHANGE 83
#SCROLL 0.88
500000000000008000000000100000000000100000100000,
500000000000000000000000008000000000000000000000,
#BPMCHANGE 93
#SCROLL 0.78
300000000000300000000000300000000000300000000000,
600000000000000000000000008000000000000000000000,
#MEASURE 2/4
#BPMCHANGE 103
#SCROLL 0.71
300000000000400000000000,
#MEASURE 4/4
900000000000000000000000000000000000000000000008,
#END
COURSE:Normal
LEVEL:5
BALLOON:10,10,10,26,20
SCOREINIT:720
SCOREDIFF:205
#START
#GOGOSTART
#BPMCHANGE 124
300000000000000000000000000000000000300000000000,
300000000000000000000000000000000000000000000000,
300000000000300000000000300000000000300000000000,
300000000000300000000000300000000000000000000000,
500000000000000000000000008000000000000000000000,
500000000000000000000000008000000000000000000000,
600000000000000000000000008000000000000000000000,
300000000000000000000000000000000000000000000000,
#GOGOEND
200000000000100000000000200000000000000000000000,
200000000000100000000000200000000000000000000000,
100000000000200000000000100000000000200000000000,
100000000000000000000000000000000000000000000000,
300000000000400000000000300000000000000000000000,
300000000000400000000000300000000000000000000000,
100000000000200000000000100000000000200000000000,
300000000000300000000000300000000000300000000000,
300000000000000000000000000000000000000000000000,
#BPMCHANGE 140
#SCROLL 0.89
400000000000000000000000000000000000000000000000,
#MEASURE 5/4
400000000000000000000000000000000000000000000000000000000000,
#MEASURE 6/4
700000000000000000000000000000000000000000000000000000008000000000000000,
#MEASURE 3/4
200000000000200000200000000000000000,
200000000000000000200000000000000000,
200000000000200000200000000000000000,
200000000000000000200000000000000000,
300000000000000000300000000000000000,
300000000000000000400000000000000000,
300000000000000000300000000000000000,
300000000000000000400000000000000000,
000000000000000000000000000000000000,
#MEASURE 4/4
#BPMCHANGE 174
#SCROLL 1
200000000000200000000000200000000000000000000000,
200000000000200000200000200000000000000000000000,
200000000000200000000000200000000000000000000000,
200000000000200000200000200000000000000000000000,
200000000000200000000000200000000000000000000000,
200000000000200000200000200000000000000000000000,
100000000000000000100000500000000000000000000000,
000000000000008000000000100000000000100000000000,
100000000000000000000000500000000000000000000000,
000000000000000000000000000000008000000000000000,
100000000000000000100000500000000000000000000000,
000000008000000000000000100000000000100000000000,
100000000000000000000000500000000000000000000000,
000000000000000000000000000000008000000000000000,
100000000000100000000000200000000000100000000000,
100000000000100000100000100000000000000000000000,
100000000000100000000000200000000000100000000000,
100000000000100000100000100000000000000000000000,
100000000000100000000000200000000000100000000000,
100000000000100000100000100000000000000000000000,
300000000000400000000000300000000000400000000000,
300000000000300000000000300000000000000000000000,
200000000000000000200000500000000000000000000000,
000000000000008000000000200000000000200000000000,
200000000000000000000000500000000000000000000000,
000000000000000000000000000000008000000000000000,
200000000000000000200000500000000000000000000000,
000000008000000000000000300000000000300000000000,
600000000000000000000000000000008000000000000000,
#GOGOSTART
300000000000000000300000000000000000300000000000,
700000000000000000000000000000000000000000000000,
000000008000000000000000400000000000400000000000,
700000000000000000000000000000000000000000000000,
#BPMCHANGE 165
#SCROLL 1.05
000000008000000000000000300000000000300000000000,
900000000000000000000000000000000000000000000000,
000000000000000000000000000000000000000000000000,
000000000000000000000000000000000000000000000000,
000000000000000000000000000000008000000000000000,
#GOGOEND
#MEASURE 3/4
#BPMCHANGE 174
#SCROLL 1
000000000000000000000000000000000000,
000000000000000000000000000000000000,
#GOGOSTART
#BPMCHANGE 176
300000000000100000000000200000000000,
100000000000100000000000200000000000,
300000000000000000000000300000000000,
300000000000000000000000000000000000,
100000000000100000000000200000000000,
100000000000100000000000200000000000,
300000000000000000000000300000000000,
300000000000000000000000300000000000,
300000000000000000000000600000000000,
000000000000000000000000000000008000,
000000000000000000000000000000000000,
#BPMCHANGE 158
#SCROLL 1.11
000000000000000000000000000000000000,
#BPMCHANGE 176
#SCROLL 1
300000000000100000000000200000000000,
100000000000100000000000200000000000,
300000000000000000000000300000000000,
300000000000000000000000300000000000,
100000000000100000000000200000000000,
100000000000100000000000200000000000,
100000000000100000000000200000000000,
100000000000100000000000100000000000,
#GOGOEND
#MEASURE 4/4
#BPMCHANGE 73
#SCROLL 2.41
400000000000000000000000000000000000
#SCROLL 1
000000000000,
#BPMCHANGE 83
#SCROLL 0.88
500000000000008000000000100000000000100000100000,
500000000000000000000000008000000000000000000000,
#BPMCHANGE 93
#SCROLL 0.78
300000000000300000000000300000000000300000000000,
600000000000000000000000008000000000000000000000,
#MEASURE 2/4
#BPMCHANGE 103
#SCROLL 0.71
300000000000400000000000,
#MEASURE 4/4
900000000000000000000000000000000000000000000008,
#END
COURSE:Easy
LEVEL:4
BALLOON:8,8,8,16,16
SCOREINIT:570
SCOREDIFF:173
#START
#GOGOSTART
#BPMCHANGE 124
300000000000000000000000000000000000000000000000,
300000000000000000000000000000000000000000000000,
300000000000300000000000300000000000300000000000,
300000000000000000000000300000000000000000000000,
500000000000000000000000008000000000000000000000,
500000000000000000000000008000000000000000000000,
600000000000000000000000008000000000000000000000,
300000000000000000000000000000000000000000000000,
#GOGOEND
200000000000000000000000200000000000000000000000,
200000000000000000000000200000000000000000000000,
200000000000200000000000200000000000000000000000,
200000000000000000000000000000000000000000000000,
300000000000000000000000300000000000000000000000,
300000000000000000000000300000000000000000000000,
100000000000100000000000100000000000100000000000,
300000000000300000000000300000000000300000000000,
300000000000000000000000000000000000000000000000,
#BPMCHANGE 140
#SCROLL 0.89
400000000000000000000000000000000000000000000000,
#MEASURE 5/4
400000000000000000000000000000000000000000000000000000000000,
#MEASURE 6/4
700000000000000000000000000000000000000000000000000000008000000000000000,
#MEASURE 3/4
200000000000000000000000000000000000,
200000000000000000000000000000000000,
200000000000000000000000000000000000,
200000000000000000000000000000000000,
300000000000000000300000000000000000,
300000000000000000000000000000000000,
300000000000000000300000000000000000,
300000000000000000300000000000000000,
000000000000000000000000000000000000,
#MEASURE 4/4
#BPMCHANGE 174
#SCROLL 1
200000000000000000000000000000000000000000000000,
200000000000000000000000200000000000200000000000,
200000000000000000000000000000000000000000000000,
200000000000000000000000200000000000200000000000,
200000000000000000000000200000000000000000000000,
200000000000000000000000100000000000000000000000,
100000000000000000000000500000000000000000000000,
008000000000000000000000100000000000100000000000,
100000000000000000000000500000000000000000000000,
000000000000000000008000000000000000000000000000,
100000000000000000000000500000000000000000000000,
008000000000000000000000100000000000100000000000,
100000000000000000000000500000000000000000000000,
000000000000000000008000000000000000000000000000,
100000000000000000000000200000000000000000000000,
100000000000100000000000100000000000000000000000,
100000000000000000000000200000000000000000000000,
100000000000100000000000100000000000000000000000,
100000000000000000000000200000000000000000000000,
100000000000100000000000100000000000000000000000,
300000000000000000000000300000000000000000000000,
300000000000300000000000300000000000000000000000,
200000000000000000000000500000000000000000000000,
008000000000000000000000200000000000200000000000,
200000000000000000000000500000000000000000000000,
000000000000000000008000000000000000000000000000,
200000000000000000000000500000000000000000000000,
008000000000000000000000300000000000300000000000,
600000000000000000008000000000000000000000000000,
#GOGOSTART
300000000000000000300000000000000000300000000000,
700000000000000000000000000000000000000000000000,
000000008000000000000000400000000000400000000000,
700000000000000000000000000000000000000000000000,
#BPMCHANGE 165
#SCROLL 1.05
000000008000000000000000300000000000300000000000,
900000000000000000000000000000000000000000000000,
000000000000000000000000000000000000000000000000,
000000000000000000000000000000000000000000000000,
000000000000000000000000000000008000000000000000,
#GOGOEND
#MEASURE 3/4
#BPMCHANGE 174
#SCROLL 1
000000000000000000000000000000000000,
000000000000000000000000000000000000,
#GOGOSTART
#BPMCHANGE 176
300000000000000000000000100000000000,
300000000000000000000000000000000000,
300000000000000000000000100000000000,
300000000000000000000000000000000000,
400000000000000000000000200000000000,
400000000000000000000000000000000000,
400000000000000000000000200000000000,
400000000000000000000000000000000000,
300000000000000000000000600000000000,
000000000000000000000000000000008000,
000000000000000000000000000000000000,
#BPMCHANGE 158
#SCROLL 1.11
000000000000000000000000000000000000,
#BPMCHANGE 176
#SCROLL 1
300000000000100000000000100000000000,
300000000000000000000000000000000000,
300000000000100000000000100000000000,
300000000000000000000000000000000000,
400000000000200000000000200000000000,
400000000000000000000000000000000000,
400000000000200000000000200000000000,
400000000000000000000000000000000000,
#GOGOEND
#MEASURE 4/4
#BPMCHANGE 73
#SCROLL 2.41
400000000000000000000000000000000000
#SCROLL 1
000000000000,
#BPMCHANGE 83
#SCROLL 0.88
500000008000000000000000000000000000000000000000,
500000000000000000000000008000000000000000000000,
#BPMCHANGE 93
#SCROLL 0.78
300000000000000000000000300000000000000000000000,
600000000000000000000000008000000000000000000000,
#MEASURE 2/4
#BPMCHANGE 103
#SCROLL 0.71
300000000000400000000000,
#MEASURE 4/4
900000000000000000000000000000000000000000000008,
#END