Add Traditional Chinese title (1276 charts) and subtitle (900 charts) header fields. Header additions only; no chart data changed. Co-Authored-By: Claude Opus 5 <noreply@anthropic.com>
745 lines
9.5 KiB
Plaintext
745 lines
9.5 KiB
Plaintext
//TJADB Project
|
|
TITLE:TD -28619029byte remix-
|
|
TITLEJA:TD - 28619029byte remix -
|
|
TITLEZH_TW:TD - 28619029byte remix -
|
|
SUBTITLE:--Yuuji Masubuchi/Techno Drive
|
|
SUBTITLEJA:「テクノドライブ」より
|
|
SUBTITLEZH_TW:--來自「Techno Drive」
|
|
BPM:150.11
|
|
WAVE:TD 28619029byte remix.ogg
|
|
OFFSET:-1.704
|
|
DEMOSTART:1.704
|
|
|
|
//SONG_ID:tecdrv
|
|
//shinuchi: 2280/1890/1400/1040
|
|
|
|
COURSE:Oni
|
|
LEVEL:9
|
|
BALLOON:10,5,5,12,12
|
|
SCOREINIT:370,1120
|
|
SCOREDIFF:83
|
|
|
|
#START
|
|
0,
|
|
000000000000000000000000100000100100101010100100,
|
|
1120102011201022,
|
|
#SCROLL 2
|
|
#GOGOSTART
|
|
500000000000000000000000000000000008000000000000,
|
|
#GOGOEND
|
|
|
|
#SCROLL 1
|
|
1100101210112211,
|
|
100100000000100000100200100200100100101010100100,
|
|
1100101210112211,
|
|
100100101010100000100200100000100100200200100200,
|
|
|
|
1100101210112211,
|
|
100100000000100000100200100200100100101010100100,
|
|
1100101210112211,
|
|
#SCROLL 2
|
|
#GOGOSTART
|
|
7000000000802222,
|
|
#GOGOEND
|
|
|
|
#SCROLL 1
|
|
0,
|
|
#BARLINEOFF
|
|
0, //14
|
|
|
|
#BARLINEON
|
|
100100200000100000200000100100100000100100101010,
|
|
1120102011012012,
|
|
1120102011101020,
|
|
100100200000100000200000200200101010100000101010,
|
|
|
|
1220102011101020,
|
|
1120102011012012,
|
|
1120102011101020,
|
|
#SCROLL 2
|
|
#GOGOSTART
|
|
500000000000000000000008000000200200200000000000,
|
|
#GOGOEND
|
|
|
|
#SCROLL 1
|
|
0202,
|
|
0000200020022020,
|
|
2222,
|
|
200000000000200000000000200000000200200000101010,
|
|
|
|
1120102012201020,
|
|
1120102012011010,
|
|
1120102012201020,
|
|
#SCROLL 2
|
|
#GOGOSTART
|
|
7000080110222000, //30
|
|
#GOGOEND
|
|
|
|
#SCROLL 1
|
|
1020122100201021,
|
|
1020122100221010,
|
|
1021122100201021,
|
|
#SCROLL 2
|
|
#GOGOSTART
|
|
7000080110404000,
|
|
#GOGOEND
|
|
|
|
#SCROLL 1
|
|
200000200100100200200100000200100000101010101010,
|
|
1021122122101121,
|
|
2021122102101121,
|
|
#SCROLL 2
|
|
#GOGOSTART
|
|
500000000000000000000000000000000008000000000000,
|
|
#GOGOEND
|
|
|
|
#SCROLL 1
|
|
2220202222020220,
|
|
2220202222020220,
|
|
#SCROLL 2
|
|
#GOGOSTART
|
|
700000000000000000000000000000000000080000000000,
|
|
#GOGOEND
|
|
#SCROLL 1
|
|
2220202222020222,
|
|
|
|
1121202112020212,
|
|
1121202112020212,
|
|
#SCROLL 2
|
|
#GOGOSTART
|
|
700000000000000000000000000000000000080000000000,
|
|
#GOGOEND
|
|
#SCROLL 1
|
|
202020200000200000200200200200000200000100101010, //46
|
|
|
|
#GOGOSTART
|
|
1211121110121121,
|
|
1012121122121121,
|
|
1012121110121121,
|
|
1012121122121121,
|
|
|
|
1211121110121121,
|
|
1012121122121121,
|
|
#SCROLL 2
|
|
6,
|
|
000000000000000008000000000000000100100000300000,
|
|
#GOGOEND
|
|
|
|
#SCROLL 1
|
|
2200110022001100,
|
|
2200110022001100,
|
|
#SCROLL 2
|
|
40000003,
|
|
3003003000000000,
|
|
|
|
#SCROLL 1
|
|
40303034,
|
|
4333,
|
|
3333,
|
|
34404030, //62
|
|
|
|
40303034,
|
|
4000300030002220,
|
|
2222000220011011,
|
|
2200000000000000,
|
|
|
|
1100101210201000,
|
|
1100101210201211,
|
|
1100101210201000,
|
|
1100101210201211,
|
|
|
|
2200102120201000,
|
|
2200102120201211,
|
|
2200102120201000,
|
|
2200102120201211,
|
|
|
|
100000102020200200200200100000200100100200200200,
|
|
100000102020200200200200100000200100100200200200,
|
|
0,
|
|
#BARLINEOFF
|
|
#SCROLL 3
|
|
0004, //78
|
|
|
|
#BARLINEON
|
|
#SCROLL 1
|
|
#GOGOSTART
|
|
1110121110101211,
|
|
1110121110101211,
|
|
1110121110101211,
|
|
1112121112211211,
|
|
|
|
1220122110121210,
|
|
1220122110121210,
|
|
1220122110121210,
|
|
1221122112112211,
|
|
|
|
1110122110101211,
|
|
1110122110101211,
|
|
1110122110101211,
|
|
1112122112211211,
|
|
|
|
1220122210122210,
|
|
1220122210122210,
|
|
1220122210122210,
|
|
1222122212122210,
|
|
#GOGOEND
|
|
|
|
3,
|
|
#SCROLL 0.9
|
|
0,
|
|
#SCROLL 0.8
|
|
0,
|
|
#SCROLL 0.7
|
|
0,
|
|
#SCROLL 0.6
|
|
0, //99
|
|
#END
|
|
|
|
|
|
COURSE:Hard
|
|
LEVEL:8
|
|
BALLOON:13,5,5,5,5,10,10
|
|
SCOREINIT:410,1630
|
|
SCOREDIFF:90
|
|
|
|
#START
|
|
0,
|
|
0000000010111110,
|
|
1110101011101010,
|
|
#SCROLL 2
|
|
#GOGOSTART
|
|
500000000000000000000000000000000008000000000000,
|
|
#GOGOEND
|
|
|
|
#SCROLL 1
|
|
1100101110111000,
|
|
1100101110111010,
|
|
1100101110111000,
|
|
1111101010111010,
|
|
|
|
1100101110111000,
|
|
1100101110111010,
|
|
1100101110111000,
|
|
#SCROLL 1.5
|
|
#GOGOSTART
|
|
900000000000000000000000000000000009000000000008,
|
|
#GOGOEND
|
|
|
|
#SCROLL 1
|
|
0,
|
|
#BARLINEOFF
|
|
0, //14
|
|
|
|
#BARLINEON
|
|
1000100010001011,
|
|
1000100011001010,
|
|
10101011,
|
|
1000100011111010,
|
|
|
|
10101011,
|
|
1000100011001010,
|
|
10101011,
|
|
#SCROLL 2
|
|
#GOGOSTART
|
|
500000000000000000000000000000000000000000000008,
|
|
#GOGOEND
|
|
|
|
#SCROLL 1
|
|
0202,
|
|
0000200020022020,
|
|
2222,
|
|
2000200020022011,
|
|
|
|
10101011,
|
|
1000100010011010,
|
|
10101011,
|
|
#SCROLL 2
|
|
#GOGOSTART
|
|
7000080700008000, //30
|
|
#GOGOEND
|
|
|
|
#SCROLL 1
|
|
12111011,
|
|
1020101010011010,
|
|
12111011,
|
|
#SCROLL 2
|
|
#GOGOSTART
|
|
7000080700008000,
|
|
#GOGOEND
|
|
|
|
#SCROLL 1
|
|
1020101010201011,
|
|
1020101011001010,
|
|
12111210,
|
|
#SCROLL 2
|
|
#GOGOSTART
|
|
500000000000000000000000000000000008000000000000,
|
|
#GOGOEND
|
|
|
|
#SCROLL 1
|
|
2220202000200020,
|
|
2220202000200020,
|
|
#SCROLL 2
|
|
#GOGOSTART
|
|
700000000000000000000000000000000000080000000000,
|
|
#GOGOEND
|
|
#SCROLL 1
|
|
2220202000200020,
|
|
|
|
2222202000200020,
|
|
2220202000200020,
|
|
#SCROLL 2
|
|
#GOGOSTART
|
|
700000000000000000000000000000000000080000000000,
|
|
#GOGOEND
|
|
#SCROLL 1
|
|
2220202222020200, //46
|
|
|
|
#GOGOSTART
|
|
1011101110111110,
|
|
1011101110111000,
|
|
1011101110111110,
|
|
1011101110111000,
|
|
|
|
1011101110111110,
|
|
1011101110111000,
|
|
#SCROLL 2
|
|
6,
|
|
000000000000000000000000000008000000000000000000,
|
|
#GOGOEND
|
|
|
|
#SCROLL 1
|
|
2121,
|
|
2121,
|
|
#SCROLL 2
|
|
40000003,
|
|
3003003000000000,
|
|
|
|
#SCROLL 1
|
|
40303034,
|
|
4333,
|
|
3333,
|
|
34404030, //62
|
|
|
|
40303034,
|
|
4000300030002220,
|
|
2222000220011011,
|
|
1100000000000000,
|
|
|
|
1100101110201000,
|
|
1100101110201000,
|
|
1100101110201000,
|
|
1100101110201000,
|
|
|
|
2200102220201000,
|
|
2200102220201000,
|
|
2200102220201000,
|
|
2200102220201000,
|
|
|
|
2000102220201022,
|
|
0000102220201022,
|
|
0,
|
|
#BARLINEOFF
|
|
#SCROLL 3
|
|
0004, //78
|
|
|
|
#BARLINEON
|
|
#SCROLL 1
|
|
#GOGOSTART
|
|
1110301110103000,
|
|
1110301111103000,
|
|
1110301110103000,
|
|
1110301111103000,
|
|
|
|
2220402220204000,
|
|
2220402222204000,
|
|
2220402220204000,
|
|
2220402222204000,
|
|
|
|
1110301110103000,
|
|
1110301111103000,
|
|
1110301110103000,
|
|
1110301111103000,
|
|
|
|
2220402220204000,
|
|
2220402222204000,
|
|
2220402220204000,
|
|
2220402222203030,
|
|
#GOGOEND
|
|
|
|
3,
|
|
#SCROLL 0.9
|
|
0,
|
|
#SCROLL 0.8
|
|
0,
|
|
#SCROLL 0.7
|
|
0,
|
|
#SCROLL 0.6
|
|
0, //99
|
|
#END
|
|
|
|
|
|
COURSE:Normal
|
|
LEVEL:7
|
|
BALLOON:9,3,3,3,3,8,8
|
|
SCOREINIT:430,2420
|
|
SCOREDIFF:98
|
|
|
|
#START
|
|
0,
|
|
0,
|
|
1111,
|
|
#SCROLL 2
|
|
#GOGOSTART
|
|
500000000000000000000000000000000008000000000000,
|
|
#GOGOEND
|
|
|
|
#SCROLL 1
|
|
10111010,
|
|
10111110,
|
|
10111010,
|
|
11101011,
|
|
|
|
10111010,
|
|
10111110,
|
|
10111010,
|
|
#SCROLL 1.5
|
|
#GOGOSTART
|
|
900000000000000000000000000000000009000000000008,
|
|
#GOGOEND
|
|
|
|
#SCROLL 1
|
|
0,
|
|
#BARLINEOFF
|
|
0, //14
|
|
|
|
#BARLINEON
|
|
10101011,
|
|
10101011,
|
|
10101011,
|
|
10101011,
|
|
|
|
10101011,
|
|
10101011,
|
|
10101011,
|
|
#SCROLL 2
|
|
#GOGOSTART
|
|
500000000000000000000000000000000000000000000008,
|
|
#GOGOEND
|
|
|
|
#SCROLL 1
|
|
0202,
|
|
0222,
|
|
0202,
|
|
0222,
|
|
|
|
1111,
|
|
10101011,
|
|
10101110,
|
|
#SCROLL 2
|
|
#GOGOSTART
|
|
7000080700008000, //30
|
|
#GOGOEND
|
|
|
|
#SCROLL 1
|
|
30111011,
|
|
30111033,
|
|
30111011,
|
|
#SCROLL 2
|
|
#GOGOSTART
|
|
7000080700008000,
|
|
#GOGOEND
|
|
|
|
#SCROLL 1
|
|
31111010,
|
|
31111010,
|
|
31111010,
|
|
#SCROLL 2
|
|
#GOGOSTART
|
|
500000000000000000000000000000000008000000000000,
|
|
#GOGOEND
|
|
|
|
#SCROLL 1
|
|
20101011,
|
|
20101011,
|
|
#SCROLL 2
|
|
#GOGOSTART
|
|
700000000000000000000000000000000000080000000000,
|
|
#GOGOEND
|
|
#SCROLL 1
|
|
20101011,
|
|
|
|
40121011,
|
|
20121011,
|
|
#SCROLL 2
|
|
#GOGOSTART
|
|
700000000000000000000000000000000000080000000000,
|
|
#GOGOEND
|
|
#SCROLL 1
|
|
22202000, //46
|
|
|
|
#GOGOSTART
|
|
11111010,
|
|
11111110,
|
|
11111010,
|
|
11111110,
|
|
|
|
11111010,
|
|
11111110,
|
|
#SCROLL 2
|
|
6,
|
|
000000000000000000000000000008000000000000000000,
|
|
#GOGOEND
|
|
|
|
#SCROLL 1
|
|
2121,
|
|
2121,
|
|
#SCROLL 2
|
|
4,
|
|
3,
|
|
|
|
#SCROLL 1
|
|
40303034,
|
|
4333,
|
|
3333,
|
|
34404030, //62
|
|
|
|
40303034,
|
|
40303044,
|
|
44404033,
|
|
3,
|
|
|
|
10111210,
|
|
10111210,
|
|
10111210,
|
|
10111210,
|
|
|
|
20121110,
|
|
20121110,
|
|
20121110,
|
|
20121110,
|
|
|
|
10121011,
|
|
10121011,
|
|
0,
|
|
#BARLINEOFF
|
|
#SCROLL 3
|
|
0004, //78
|
|
|
|
#BARLINEON
|
|
#SCROLL 1
|
|
#GOGOSTART
|
|
11301031,
|
|
11301031,
|
|
11301031,
|
|
11301033,
|
|
|
|
40111033,
|
|
40121033,
|
|
40111033,
|
|
40121031,
|
|
|
|
11301031,
|
|
11301031,
|
|
11301031,
|
|
11301033,
|
|
|
|
40111033,
|
|
40121033,
|
|
40111033,
|
|
40121033,
|
|
#GOGOEND
|
|
|
|
3,
|
|
#SCROLL 0.9
|
|
0,
|
|
#SCROLL 0.8
|
|
0,
|
|
#SCROLL 0.7
|
|
0,
|
|
#SCROLL 0.6
|
|
0, //99
|
|
#END
|
|
|
|
|
|
COURSE:Easy
|
|
LEVEL:5
|
|
BALLOON:7,2,2,2,2,6,6
|
|
SCOREINIT:280,2900
|
|
SCOREDIFF:55
|
|
|
|
#START
|
|
0,
|
|
0,
|
|
1111,
|
|
#SCROLL 2
|
|
#GOGOSTART
|
|
500000000000000000000000000000000008000000000000,
|
|
#GOGOEND
|
|
|
|
#SCROLL 1
|
|
1111,
|
|
10101110,
|
|
1111,
|
|
11101011,
|
|
|
|
1111,
|
|
10101110,
|
|
1111,
|
|
#SCROLL 1.5
|
|
#GOGOSTART
|
|
900000000000000000000000000000000009000000000008,
|
|
#GOGOEND
|
|
|
|
#SCROLL 1
|
|
0,
|
|
#BARLINEOFF
|
|
0, //14
|
|
|
|
#BARLINEON
|
|
1111,
|
|
10101011,
|
|
1111,
|
|
10101110,
|
|
|
|
1111,
|
|
10101011,
|
|
1111,
|
|
#SCROLL 2
|
|
#GOGOSTART
|
|
500000000000000000000000000000000000000000000008,
|
|
#GOGOEND
|
|
|
|
#SCROLL 1
|
|
0202,
|
|
0222,
|
|
0202,
|
|
0222,
|
|
|
|
0101,
|
|
0111,
|
|
0101,
|
|
#SCROLL 2
|
|
#GOGOSTART
|
|
7000080700008000, //30
|
|
#GOGOEND
|
|
|
|
#SCROLL 1
|
|
3111,
|
|
30101033,
|
|
3111,
|
|
#SCROLL 2
|
|
#GOGOSTART
|
|
7000080700008000,
|
|
#GOGOEND
|
|
|
|
#SCROLL 1
|
|
30111010,
|
|
30111033,
|
|
30111010,
|
|
#SCROLL 2
|
|
#GOGOSTART
|
|
500000000000000000000000000000000008000000000000,
|
|
#GOGOEND
|
|
|
|
#SCROLL 1
|
|
2111,
|
|
2111,
|
|
#SCROLL 2
|
|
#GOGOSTART
|
|
700000000000000000000000000000000000080000000000,
|
|
#GOGOEND
|
|
#SCROLL 1
|
|
2111,
|
|
|
|
4111,
|
|
2111,
|
|
#SCROLL 2
|
|
#GOGOSTART
|
|
700000000000000000000000000000000000080000000000,
|
|
#GOGOEND
|
|
#SCROLL 1
|
|
2220, //46
|
|
|
|
#GOGOSTART
|
|
11101010,
|
|
11101010,
|
|
11101010,
|
|
11101110,
|
|
|
|
11101010,
|
|
11101010,
|
|
#SCROLL 2
|
|
6,
|
|
000000000000000000000000000008000000000000000000,
|
|
#GOGOEND
|
|
|
|
#SCROLL 1
|
|
2121,
|
|
2121,
|
|
#SCROLL 2
|
|
4,
|
|
3,
|
|
|
|
#SCROLL 1
|
|
40303033,
|
|
3333,
|
|
3333,
|
|
33303030, //62
|
|
|
|
40303033,
|
|
3334,
|
|
40404033,
|
|
3,
|
|
|
|
10111010,
|
|
10111010,
|
|
10111010,
|
|
10111010,
|
|
|
|
20222020,
|
|
20222020,
|
|
20222020,
|
|
20222020,
|
|
|
|
10101011,
|
|
10101011,
|
|
0,
|
|
#BARLINEOFF
|
|
#SCROLL 3
|
|
0004, //78
|
|
|
|
#BARLINEON
|
|
#SCROLL 1
|
|
#GOGOSTART
|
|
11101030,
|
|
11101030,
|
|
11101030,
|
|
11101030,
|
|
|
|
30111030,
|
|
30111030,
|
|
30111030,
|
|
30111030,
|
|
|
|
11101030,
|
|
11101030,
|
|
11101030,
|
|
11101030,
|
|
|
|
40222040,
|
|
40222040,
|
|
40222040,
|
|
40222033,
|
|
#GOGOEND
|
|
|
|
3,
|
|
#SCROLL 0.9
|
|
0,
|
|
#SCROLL 0.8
|
|
0,
|
|
#SCROLL 0.7
|
|
0,
|
|
#SCROLL 0.6
|
|
0, //99
|
|
#END |