315 lines
3.4 KiB
Plaintext
315 lines
3.4 KiB
Plaintext
//TJADB Project
|
||
TITLE:Take me☆Take you
|
||
TITLEJA:Take me☆Take you
|
||
SUBTITLE:--CINDERELLA GIRLS/THE iDOLM@STER Cinderella Girls: Starlight Stage
|
||
SUBTITLEJA:THE IDOLM@STER CINDERELLA GIRLS!! / どんどこパラダイス
|
||
BPM:180
|
||
WAVE:Take me Take you.ogg
|
||
OFFSET:-5.177
|
||
DEMOSTART:59.843
|
||
SCENEPRESET:IMAS_CG
|
||
|
||
COURSE:Hard
|
||
LEVEL:5
|
||
BALLOON:5,6,15
|
||
SCOREINIT:560
|
||
SCOREDIFF:133
|
||
|
||
#START
|
||
11101101,
|
||
01010110,
|
||
11101101,
|
||
01010110,
|
||
11101101,
|
||
01010110,
|
||
11101101,
|
||
01011020,
|
||
#GOGOSTART
|
||
10111011,
|
||
10111010,
|
||
20222022,
|
||
20222020,
|
||
10111011,
|
||
10111020,
|
||
10110203,
|
||
#GOGOEND
|
||
0,
|
||
10101011,
|
||
01102000,
|
||
10101011,
|
||
01102000,
|
||
10101011,
|
||
01102020,
|
||
500000000000000008000000500000000008000000700000,
|
||
00080222,
|
||
10101022,
|
||
02202000,
|
||
10101022,
|
||
02202010,
|
||
500000000000000000000008000000000000100000000000,
|
||
500000000000000000000008000000000000000000100000,
|
||
11010102,
|
||
02220000,
|
||
11011011,
|
||
02202020,
|
||
11011011,
|
||
02202020,
|
||
11011011,
|
||
02202020,
|
||
11010200,
|
||
33330033,
|
||
33003040,
|
||
#GOGOSTART
|
||
10201120,
|
||
10201220,
|
||
10201120,
|
||
10201220,
|
||
10201120,
|
||
10201220,
|
||
10102220,
|
||
70000800,
|
||
10201120,
|
||
10201220,
|
||
1215,
|
||
000000000008000000000000200000000000200000000000,
|
||
7,
|
||
0082,
|
||
2112,
|
||
3344,
|
||
10221022,
|
||
10221020,
|
||
10221022,
|
||
10221020,
|
||
10221022,
|
||
10221020,
|
||
10221020,
|
||
2020101000222000,
|
||
#GOGOEND
|
||
20202202,
|
||
02022010,
|
||
20202202,
|
||
02021010,
|
||
20202202,
|
||
02022010,
|
||
20202203,
|
||
03044030,
|
||
20202211,
|
||
02211020,
|
||
20202211,
|
||
02211020,
|
||
11101110,
|
||
22202220,
|
||
11101110,
|
||
22202220,
|
||
11102220,
|
||
11102220,
|
||
33033033,
|
||
04403306,
|
||
,
|
||
,
|
||
000000000000000000000000000000000000000000000008,
|
||
#END
|
||
|
||
COURSE:Normal
|
||
LEVEL:3
|
||
BALLOON:5,13,12,5,12,4,7
|
||
SCOREINIT:740
|
||
SCOREDIFF:228
|
||
|
||
#START
|
||
10001001,
|
||
,
|
||
10001001,
|
||
,
|
||
10001001,
|
||
,
|
||
10001007,
|
||
000000000008000000000000,
|
||
#GOGOSTART
|
||
0303,
|
||
0303,
|
||
0404,
|
||
0404,
|
||
0303,
|
||
0303,
|
||
600008,
|
||
#GOGOEND
|
||
0,
|
||
11,
|
||
1110,
|
||
22,
|
||
2220,
|
||
11,
|
||
1110,
|
||
5,
|
||
080,
|
||
1110,
|
||
1110,
|
||
2220,
|
||
2220,
|
||
500000000008000000000000,
|
||
500000080000,
|
||
7,
|
||
000000080000,
|
||
30030030,
|
||
,
|
||
30030030,
|
||
,
|
||
30030030,
|
||
,
|
||
33,
|
||
070000,
|
||
,
|
||
000000000008000000000000,
|
||
#GOGOSTART
|
||
1110,
|
||
1120,
|
||
1110,
|
||
1120,
|
||
1110,
|
||
1120,
|
||
500000000000000008000000,
|
||
700000000000000008000000,
|
||
1110,
|
||
1120,
|
||
2225,
|
||
000000000000000008000000,
|
||
7,
|
||
000000000008000000000000,
|
||
1120,
|
||
3333,
|
||
1210,
|
||
1210,
|
||
1212,
|
||
1210,
|
||
1210,
|
||
1210,
|
||
1212,
|
||
700000080000,
|
||
#GOGOEND
|
||
0303,
|
||
0303,
|
||
0404,
|
||
0404,
|
||
0303,
|
||
0303,
|
||
00400047,
|
||
000000000000000008000000,
|
||
0303,
|
||
0303,
|
||
0404,
|
||
0404,
|
||
500000000008000000300000,
|
||
500000000008000000400000,
|
||
500000000008000000300000,
|
||
500000000008000000400000,
|
||
500000000008000000300000,
|
||
500000000008000000400000,
|
||
3003,
|
||
00003006,
|
||
,
|
||
,
|
||
000000000000000000000000000000000000000000000008,
|
||
#END
|
||
|
||
COURSE:Easy
|
||
LEVEL:3
|
||
BALLOON:3,3,3,3,8,7,3,7,3,5
|
||
SCOREINIT:600
|
||
SCOREDIFF:180
|
||
|
||
#START
|
||
700000000000008000000300,
|
||
,
|
||
700000000000008000000300,
|
||
,
|
||
700000000000008000000300,
|
||
,
|
||
700000000000008000000300,
|
||
,
|
||
#GOGOSTART
|
||
0303,
|
||
0303,
|
||
0303,
|
||
0303,
|
||
0303,
|
||
0303,
|
||
600008,
|
||
#GOGOEND
|
||
0,
|
||
11,
|
||
1,
|
||
22,
|
||
2,
|
||
11,
|
||
1,
|
||
5,
|
||
080,
|
||
11,
|
||
1110,
|
||
22,
|
||
2220,
|
||
500000000008000000000000,
|
||
500000080000,
|
||
7,
|
||
000000080000,
|
||
30030030,
|
||
,
|
||
30030030,
|
||
,
|
||
30030030,
|
||
,
|
||
30000007,
|
||
,
|
||
000000000008000000000000,
|
||
#GOGOSTART
|
||
11,
|
||
1110,
|
||
22,
|
||
2220,
|
||
11,
|
||
1110,
|
||
500000000000000008000000,
|
||
700000000000000008000000,
|
||
11,
|
||
1110,
|
||
2025,
|
||
000000000000000008000000,
|
||
7,
|
||
000000000008000000000000,
|
||
11,
|
||
3330,
|
||
11,
|
||
22,
|
||
11,
|
||
22,
|
||
11,
|
||
22,
|
||
11,
|
||
700000080000,
|
||
#GOGOEND
|
||
0303,
|
||
0303,
|
||
0303,
|
||
0303,
|
||
0404,
|
||
0404,
|
||
00400047,
|
||
000000000000000008000000,
|
||
0303,
|
||
0303,
|
||
0303,
|
||
0303,
|
||
500000000008000000300000,
|
||
500000000008000000300000,
|
||
500000000008000000300000,
|
||
500000000008000000300000,
|
||
500000000008000000300000,
|
||
500000000008000000300000,
|
||
3003,
|
||
00003006,
|
||
,
|
||
,
|
||
000000000000000000000000000000000000000000000008,
|
||
#END
|