01 Pop Apollo (Fixed Easy-measure 59) LOSER (Fixed Balloon Hitcount (Normal/Easy)) 02 Anime Tenshi to Akuma 05 Variety Hello Kitty (Fixed BPM/HS) 06 Classical Hung-rock (Fixed MEASURE/BPM/HS, Balloon Hitcount (Hard/Normal), Oni-measure 63, Easy-measure 7,64) 07 Game Music Brand New Theater! (Fixed Balloon Hitcount (Easy), Normal/Easy-measure 6) Heat Haze Shadow 2 (Fixed Balloon Hitcount (Normal)) Tales of Berseria Medley (Trimmed Oni Chart, Fixed BPM/HS (Sub-Oni)) Theme of Ryu (Trimmed AD Chart, Fixed Balloon Hitcount (Easy)) Urban Striker (Fixed Oni-measure 22, Easy-measure 29) 09 Namco Original Hello, Worldooon!! (Added AC15(NS2) Scoring) Magical Parfait (Minor chart updates only, Fixed SUBTITLEJA) Sotsu Omeshiki -Full Version- (Minor updates only) Trust Game (Fixed Hard-measure 53) "Hello Kitty" Category changed. "04 Children and Folk" -> "05 Variety".
779 lines
10 KiB
Plaintext
779 lines
10 KiB
Plaintext
//TJADB Project
|
|
TITLE:Tales of Berseria Medley
|
|
TITLEJA:テイルズ オブ ベルセリア メドレー
|
|
SUBTITLE:--Motoi Sakuraba/Tales of Berseria
|
|
SUBTITLEJA:
|
|
BPM:117.75
|
|
WAVE:Tales of Berseria Medley.ogg
|
|
OFFSET:-2.278
|
|
DEMOSTART:58.099
|
|
|
|
COURSE:Oni
|
|
LEVEL:8
|
|
BALLOON:18
|
|
SCOREINIT:450,1470
|
|
SCOREDIFF:110
|
|
|
|
#START
|
|
1002002020020020,
|
|
#BPMCHANGE 115.47
|
|
#SCROLL 1.01
|
|
1000000020020020,
|
|
#BPMCHANGE 113.02
|
|
#SCROLL 1.04
|
|
1000000020020020,
|
|
#BPMCHANGE 117.91
|
|
#SCROLL 0.99
|
|
1000000020020020,
|
|
|
|
#BPMCHANGE 118.18
|
|
1110000010010010,
|
|
#BPMCHANGE 115.44
|
|
#SCROLL 1.01
|
|
2002002010010010,
|
|
#BPMCHANGE 115.55
|
|
2002002010002000,
|
|
500000000000000008000000100000100000100000100000, //8
|
|
|
|
#BPMCHANGE 116.79
|
|
#SCROLL 1
|
|
1110000010010010,
|
|
#BPMCHANGE 115.93
|
|
#SCROLL 1.01
|
|
2002002010010010,
|
|
1110000010010010,
|
|
#BPMCHANGE 115.81
|
|
1001001020002000,
|
|
|
|
#BPMCHANGE 116.3
|
|
1001001020101110,
|
|
#BPMCHANGE 116.22
|
|
11111111,
|
|
#MEASURE 6/4
|
|
21212244
|
|
#BPMCHANGE 112.42
|
|
#SCROLL 1.04
|
|
0000, //15
|
|
|
|
#MEASURE 4/4
|
|
#BPMCHANGE 116.71
|
|
#SCROLL 1
|
|
#GOGOSTART
|
|
10120202,
|
|
#BPMCHANGE 117.96
|
|
#SCROLL 0.99
|
|
1012010200011010,
|
|
#BPMCHANGE 114.98
|
|
#SCROLL 1.02
|
|
10120202,
|
|
1012010200011022,
|
|
|
|
10120202,
|
|
#BPMCHANGE 117.12
|
|
#SCROLL 1
|
|
1012010200011010,
|
|
#BPMCHANGE 115.55
|
|
#SCROLL 1.01
|
|
10120202,
|
|
1002001020010020,
|
|
#BPMCHANGE 116.01
|
|
7,
|
|
#BPMCHANGE 117.01
|
|
#SCROLL 1
|
|
84, //25
|
|
#GOGOEND
|
|
|
|
#BPMCHANGE 236
|
|
12212212,
|
|
21221212,
|
|
3,
|
|
|
|
10201120,
|
|
10210120,
|
|
10201120,
|
|
10210120,
|
|
|
|
10201120,
|
|
10210120,
|
|
10211120,
|
|
10211120, //36
|
|
|
|
10201120,
|
|
10210120,
|
|
10201120,
|
|
11210120,
|
|
|
|
10201120,
|
|
10210120,
|
|
10211120,
|
|
12012011, //44
|
|
|
|
#GOGOSTART
|
|
10201120,
|
|
10211120,
|
|
10201120,
|
|
10211120,
|
|
|
|
10201120,
|
|
10211120,
|
|
10201120,
|
|
10212211, //52
|
|
|
|
1110200010102000,
|
|
10211120,
|
|
1110200010102000,
|
|
10211120,
|
|
|
|
1110200010102000,
|
|
10211120,
|
|
21112111,
|
|
21112121, //60
|
|
#GOGOEND
|
|
|
|
6,
|
|
000000000000000000000008000000000000000000000000,
|
|
11211211,
|
|
21121120,
|
|
|
|
6,
|
|
000000000000000000000008000000000000000000000000,
|
|
11211211,
|
|
21122211, //68
|
|
|
|
#BPMCHANGE 154
|
|
0,
|
|
3003003040040040,
|
|
|
|
1010210210102102,
|
|
1010210210102102,
|
|
1010210210102102,
|
|
1012101210121012,
|
|
|
|
1010210210102102,
|
|
1010210210102030,
|
|
1010210210102100,
|
|
3004003040030040, //78
|
|
|
|
#GOGOSTART
|
|
1110102110112020,
|
|
1011112011101202,
|
|
1101102211011022,
|
|
1101102211104040,
|
|
|
|
1110102110112020,
|
|
1011112011101202,
|
|
1101102211011022,
|
|
1201201211112211, //86
|
|
#GOGOEND
|
|
|
|
#MEASURE 2/4
|
|
#BPMCHANGE 152.72
|
|
0,
|
|
#MEASURE 4/4
|
|
#BPMCHANGE 155
|
|
#SCROLL 3
|
|
3,
|
|
#BPMCHANGE 150
|
|
#SCROLL 0.97
|
|
211211211211,
|
|
200200200211,
|
|
200200211211, //91
|
|
|
|
#BPMCHANGE 146
|
|
#SCROLL 1
|
|
#GOGOSTART
|
|
101201101201,
|
|
101201101200,
|
|
101122101122,
|
|
101211211211,
|
|
|
|
101211211211,
|
|
101211211211,
|
|
212121212121,
|
|
101202222111,
|
|
|
|
6,
|
|
000000000000000000000000000000000008000000000000,
|
|
221221112112,
|
|
300300121211,
|
|
#GOGOEND
|
|
0, //104
|
|
#END
|
|
|
|
|
|
COURSE:Hard
|
|
LEVEL:6
|
|
BALLOON:28,16
|
|
SCOREINIT:480,2120
|
|
SCOREDIFF:120
|
|
|
|
#START
|
|
1002002020020020,
|
|
#BPMCHANGE 115.47
|
|
#SCROLL 1.01
|
|
1000000020020020,
|
|
#BPMCHANGE 113.02
|
|
#SCROLL 1.04
|
|
1000000020020020,
|
|
#BPMCHANGE 117.91
|
|
#SCROLL 0.99
|
|
1000000020020020,
|
|
|
|
#BPMCHANGE 118.18
|
|
1110000020020020,
|
|
#BPMCHANGE 115.44
|
|
#SCROLL 1.01
|
|
1001001020020020,
|
|
#BPMCHANGE 115.55
|
|
1001001020002000,
|
|
500000000000000000000000000000000008000000000000, //8
|
|
|
|
#BPMCHANGE 116.79
|
|
#SCROLL 1
|
|
1110000020020020,
|
|
#BPMCHANGE 115.93
|
|
#SCROLL 1.01
|
|
1001001020020020,
|
|
1110000020020020,
|
|
#BPMCHANGE 115.81
|
|
1001001020002000,
|
|
|
|
#BPMCHANGE 116.3
|
|
1001001020000000,
|
|
#BPMCHANGE 116.22
|
|
7,
|
|
#MEASURE 6/4
|
|
00
|
|
#BPMCHANGE 112.42
|
|
#SCROLL 1.04
|
|
8, //15
|
|
|
|
#MEASURE 4/4
|
|
#BPMCHANGE 116.71
|
|
#SCROLL 1
|
|
#GOGOSTART
|
|
10110202,
|
|
#BPMCHANGE 117.96
|
|
#SCROLL 0.99
|
|
1011010200000011,
|
|
#BPMCHANGE 114.98
|
|
#SCROLL 1.02
|
|
10110202,
|
|
1011010200000011,
|
|
|
|
10110202,
|
|
#BPMCHANGE 117.12
|
|
#SCROLL 1
|
|
1011010200000011,
|
|
#BPMCHANGE 115.55
|
|
#SCROLL 1.01
|
|
10110201,
|
|
1001001010010010,
|
|
#BPMCHANGE 116.01
|
|
9009,
|
|
#BPMCHANGE 117.01
|
|
#SCROLL 1
|
|
8, //25
|
|
#GOGOEND
|
|
|
|
#BPMCHANGE 236
|
|
30030030,
|
|
03001110,
|
|
3,
|
|
|
|
10101110,
|
|
10110110,
|
|
10210210,
|
|
1212,
|
|
|
|
10101110,
|
|
10110110,
|
|
10210210,
|
|
1212, //36
|
|
|
|
10101110,
|
|
10110110,
|
|
10210210,
|
|
1212,
|
|
|
|
10101110,
|
|
10110110,
|
|
10210210,
|
|
500000000000000000000000000000000008000000000000, //44
|
|
|
|
#GOGOSTART
|
|
10210120,
|
|
10201120,
|
|
10210120,
|
|
10201120,
|
|
|
|
10210120,
|
|
10210120,
|
|
10201120,
|
|
1212, //52
|
|
|
|
10210210,
|
|
1212,
|
|
10210120,
|
|
1222,
|
|
|
|
10210210,
|
|
1212,
|
|
11011020,
|
|
11011020, //60
|
|
#GOGOEND
|
|
|
|
6,
|
|
000000000000000000000008000000000000000000000000,
|
|
11011011,
|
|
01102220,
|
|
|
|
6,
|
|
000000000000000000000008000000000000000000000000,
|
|
11011011,
|
|
01102220, //68
|
|
|
|
#BPMCHANGE 154
|
|
0,
|
|
0,
|
|
|
|
10201110,
|
|
10201110,
|
|
10201110,
|
|
2002002010010010,
|
|
|
|
1001001020020020,
|
|
1001001020020020,
|
|
2002002010010010,
|
|
3003003040040040, //78
|
|
|
|
#GOGOSTART
|
|
1010110010101100,
|
|
1010110020202000,
|
|
1010110010101100,
|
|
100000100000100100000000500000000008000000000000,
|
|
|
|
1010110010101100,
|
|
1010110020202000,
|
|
1010110010101100,
|
|
3003003040040040, //86
|
|
#GOGOEND
|
|
|
|
#MEASURE 2/4
|
|
#BPMCHANGE 152.72
|
|
0,
|
|
#MEASURE 4/4
|
|
#BPMCHANGE 155
|
|
#SCROLL 2
|
|
3,
|
|
#BPMCHANGE 150
|
|
#SCROLL 0.97
|
|
1111,
|
|
2222,
|
|
3333, //91
|
|
|
|
#BPMCHANGE 146
|
|
#SCROLL 1
|
|
#GOGOSTART
|
|
101101101101,
|
|
101200101200,
|
|
100202100202,
|
|
1212,
|
|
|
|
100101101101,
|
|
100202202202,
|
|
222222,
|
|
100101101111,
|
|
|
|
6,
|
|
000000000000000000000000000000000008000000000000,
|
|
111100111100,
|
|
300300303030,
|
|
#GOGOEND
|
|
0, //104
|
|
#END
|
|
|
|
|
|
COURSE:Normal
|
|
LEVEL:6
|
|
BALLOON:25,13,10,10
|
|
SCOREINIT:650,3670
|
|
SCOREDIFF:163
|
|
|
|
#START
|
|
2002002020000000,
|
|
#BPMCHANGE 115.47
|
|
#SCROLL 1.01
|
|
2000000020020020,
|
|
#BPMCHANGE 113.02
|
|
#SCROLL 1.04
|
|
2000000020020020,
|
|
#BPMCHANGE 117.91
|
|
#SCROLL 0.99
|
|
22,
|
|
|
|
#BPMCHANGE 118.18
|
|
2002002000001000,
|
|
#BPMCHANGE 115.44
|
|
#SCROLL 1.01
|
|
2002002000001000,
|
|
#BPMCHANGE 115.55
|
|
2002002000001000,
|
|
500000000000000000000000000000000008000000000000, //8
|
|
|
|
#BPMCHANGE 116.79
|
|
#SCROLL 1
|
|
1000000020020020,
|
|
#BPMCHANGE 115.93
|
|
#SCROLL 1.01
|
|
1000000020020020,
|
|
1000000020020020,
|
|
#BPMCHANGE 115.81
|
|
500000000000000000000000000000000000000000000008,
|
|
|
|
#BPMCHANGE 116.3
|
|
0,
|
|
#BPMCHANGE 116.22
|
|
7,
|
|
#MEASURE 6/4
|
|
00
|
|
#BPMCHANGE 112.42
|
|
#SCROLL 1.04
|
|
8, //15
|
|
|
|
#MEASURE 4/4
|
|
#BPMCHANGE 116.71
|
|
#SCROLL 1
|
|
#GOGOSTART
|
|
|
|
10030000,
|
|
#BPMCHANGE 117.96
|
|
#SCROLL 0.99
|
|
500000000000000000000000000000000008000000000000,
|
|
#BPMCHANGE 114.98
|
|
#SCROLL 1.02
|
|
10030000,
|
|
500000000000000000000000000000000008000000000000,
|
|
|
|
10030000,
|
|
#BPMCHANGE 117.12
|
|
#SCROLL 1
|
|
500000000000000000000000000000000008000000000000,
|
|
#BPMCHANGE 115.55
|
|
#SCROLL 1.01
|
|
10030000,
|
|
1001001010000000,
|
|
#BPMCHANGE 116.01
|
|
9009,
|
|
#BPMCHANGE 117.01
|
|
#SCROLL 1
|
|
8, //25
|
|
#GOGOEND
|
|
|
|
#BPMCHANGE 236
|
|
30030030,
|
|
03003030,
|
|
3,
|
|
|
|
11,
|
|
1110,
|
|
11,
|
|
12,
|
|
|
|
11,
|
|
1110,
|
|
11,
|
|
12, //36
|
|
|
|
22,
|
|
2220,
|
|
22,
|
|
2220,
|
|
|
|
11,
|
|
1110,
|
|
22,
|
|
2022, //44
|
|
|
|
#GOGOSTART
|
|
7,
|
|
0008,
|
|
7,
|
|
0008,
|
|
|
|
20020020,
|
|
10010010,
|
|
500000000000000000000000000000000008000000000000,
|
|
11, //52
|
|
|
|
10010010,
|
|
2222,
|
|
1001,
|
|
01,
|
|
|
|
10010010,
|
|
20020020,
|
|
10010010,
|
|
20020020, //60
|
|
#GOGOEND
|
|
|
|
6,
|
|
000000000000000000000008000000000000000000000000,
|
|
10010010,
|
|
01001010,
|
|
|
|
6,
|
|
000000000000000000000008000000000000000000000000,
|
|
10010010,
|
|
01001010, //68
|
|
|
|
#BPMCHANGE 154
|
|
0,
|
|
0,
|
|
|
|
10101110,
|
|
10101110,
|
|
10010020,
|
|
1001001010000000,
|
|
|
|
1001001010000000,
|
|
1001001010000000,
|
|
1001002020000000,
|
|
3003004040000000, //78
|
|
|
|
#GOGOSTART
|
|
10201110,
|
|
1001001010101000,
|
|
1001001020020020,
|
|
100000000100000000100000500000000008000000000000,
|
|
|
|
10201110,
|
|
1001001010101000,
|
|
1001001020020020,
|
|
3003003030030030, //86
|
|
#GOGOEND
|
|
|
|
#MEASURE 2/4
|
|
#BPMCHANGE 152.72
|
|
0,
|
|
#MEASURE 4/4
|
|
#BPMCHANGE 155
|
|
3,
|
|
#BPMCHANGE 150
|
|
#SCROLL 0.97
|
|
1111,
|
|
2222,
|
|
3333, //91
|
|
|
|
#BPMCHANGE 146
|
|
#SCROLL 1
|
|
#GOGOSTART
|
|
1212,
|
|
1012,
|
|
1012,
|
|
1122,
|
|
|
|
100200101100,
|
|
100200101100,
|
|
222222,
|
|
3033,
|
|
|
|
6,
|
|
000000000000000000000000000000000008000000000000,
|
|
3333,
|
|
300300303030,
|
|
#GOGOEND
|
|
0, //104
|
|
#END
|
|
|
|
|
|
COURSE:Easy
|
|
LEVEL:4
|
|
BALLOON:16,6,7
|
|
SCOREINIT:710,7620
|
|
SCOREDIFF:220
|
|
|
|
#START
|
|
1,
|
|
#BPMCHANGE 115.47
|
|
#SCROLL 1.01
|
|
1,
|
|
#BPMCHANGE 113.02
|
|
#SCROLL 1.04
|
|
11,
|
|
#BPMCHANGE 117.91
|
|
#SCROLL 0.99
|
|
1,
|
|
|
|
#BPMCHANGE 118.18
|
|
1,
|
|
#BPMCHANGE 115.44
|
|
#SCROLL 1.01
|
|
1,
|
|
#BPMCHANGE 115.55
|
|
11,
|
|
500000000000000000000000000008000000000000000000, //8
|
|
|
|
#BPMCHANGE 116.79
|
|
#SCROLL 1
|
|
1,
|
|
#BPMCHANGE 115.93
|
|
#SCROLL 1.01
|
|
11,
|
|
11,
|
|
#BPMCHANGE 115.81
|
|
500000000000000000000000000000000000000000000008,
|
|
|
|
#BPMCHANGE 116.3
|
|
0,
|
|
#BPMCHANGE 116.22
|
|
7,
|
|
#MEASURE 6/4
|
|
00
|
|
#BPMCHANGE 112.42
|
|
#SCROLL 1.04
|
|
8, //15
|
|
|
|
#MEASURE 4/4
|
|
#BPMCHANGE 116.71
|
|
#SCROLL 1
|
|
#GOGOSTART
|
|
10030000,
|
|
#BPMCHANGE 117.96
|
|
#SCROLL 0.99
|
|
500000000000000000000000000008000000000000000000,
|
|
#BPMCHANGE 114.98
|
|
#SCROLL 1.02
|
|
10030000,
|
|
500000000000000000000000000008000000000000000000,
|
|
|
|
10030000,
|
|
#BPMCHANGE 117.12
|
|
#SCROLL 1
|
|
500000000000000000000000000008000000000000000000,
|
|
#BPMCHANGE 115.55
|
|
#SCROLL 1.01
|
|
10030000,
|
|
11,
|
|
#BPMCHANGE 116.01
|
|
9009,
|
|
#BPMCHANGE 117.01
|
|
#SCROLL 1
|
|
8, //25
|
|
#GOGOEND
|
|
|
|
#BPMCHANGE 236
|
|
3,
|
|
0,
|
|
3,
|
|
|
|
1,
|
|
2,
|
|
11,
|
|
2,
|
|
|
|
1,
|
|
2,
|
|
11,
|
|
1, //36
|
|
|
|
4,
|
|
0220,
|
|
3,
|
|
4,
|
|
|
|
1,
|
|
2,
|
|
4,
|
|
600000000000000000000000000008000000000000000000, //44
|
|
|
|
#GOGOSTART
|
|
20020000,
|
|
500000000000000000000000000008000000000000000000,
|
|
20020000,
|
|
500000000000000000000000000008000000000000000000,
|
|
|
|
20020000,
|
|
10010000,
|
|
5,
|
|
000000000000000000000000000008000000000000000000, //52
|
|
|
|
10010000,
|
|
2,
|
|
10000005,
|
|
000000000000000000000000000008000000000000000000,
|
|
|
|
10010000,
|
|
10010000,
|
|
10010000,
|
|
20020000, //60
|
|
#GOGOEND
|
|
|
|
9,
|
|
09008000,
|
|
0,
|
|
0,
|
|
|
|
6,
|
|
000000000000000000000008000000000000000000000000,
|
|
6,
|
|
000000000000000000000008000000000000000000000000, //68
|
|
|
|
#BPMCHANGE 154
|
|
0,
|
|
0,
|
|
|
|
1001,
|
|
10010000,
|
|
10010000,
|
|
600000000000000000000000000008000000000000000000,
|
|
|
|
10011000,
|
|
20022000,
|
|
10011000,
|
|
600000000000000000000000000008000000000000000000, //78
|
|
|
|
#GOGOSTART
|
|
22,
|
|
2220,
|
|
22,
|
|
500000000000000000000000000008000000000000000000,
|
|
|
|
22,
|
|
2220,
|
|
22,
|
|
600000000000000000000000000008000000000000000000, //86
|
|
#GOGOEND
|
|
|
|
#MEASURE 2/4
|
|
#BPMCHANGE 152.72
|
|
0,
|
|
#MEASURE 4/4
|
|
#BPMCHANGE 155
|
|
3,
|
|
#BPMCHANGE 150
|
|
#SCROLL 0.97
|
|
1110,
|
|
1110,
|
|
3330, //91
|
|
|
|
#BPMCHANGE 146
|
|
#SCROLL 1
|
|
#GOGOSTART
|
|
11,
|
|
1011,
|
|
11,
|
|
1,
|
|
|
|
12,
|
|
12,
|
|
2222,
|
|
3033,
|
|
|
|
6,
|
|
000000000000000000000000000008000000000000000000,
|
|
3333,
|
|
3330,
|
|
#GOGOEND
|
|
0, //104
|
|
#END |