Files
2024-08-20 14:32:42 -04:00

501 lines
5.4 KiB
Plaintext

//TJADB Project
TITLE:Teknowerk Medley
TITLEJA:テクノヴェルクメドレー
SUBTITLE:--
SUBTITLEJA:
BPM:126
WAVE:Teknowerk Medley.ogg
OFFSET:-2.844
DEMOSTART:23.767
COURSE:Oni
LEVEL:9
BALLOON:20
SCOREINIT:370,1110
SCOREDIFF:93
#START
10021200,
10021200,
11121200,
1011202210211020,
1011202210211022,
1011202210211020,
1011202210211022,
10210020,
1000201000102100,
10210020,
1000201000102222, //11
1121202011212000,
1121202021212000,
1121202011212000,
1121202011212000,
1121202211212000,
1121202221212000,
1121202211212000,
1121202211212000, //19
1121201211221022,
1121201211212022,
1121201211221022,
1121221211212022,
1121221211221022,
1121221211212022,
1121221211221000,
#MEASURE 2/4
#BPMCHANGE 100
22002211, //27
#MEASURE 4/4
100000202020100200100100200000100000200000200200,
1021121010202120,
100000202020100200100100200000200100200000200200,
1021121010202120,
100000202020100200100100200000200100200100200200,
1021121010202122,
100000202020100200100100200000200100200200100200,
1021121020102210, //35
1021201120102120,
1120101120102200,
1021221120102122,
1120101122112212,
1021221122102122,
1122101120102200,
1021221122102120,
200200100100200200100200101010101010
#BPMCHANGE 95.824
#SCROLL 1.04
100100200200, //43
#BPMCHANGE 140
#SCROLL 1
11001122,
11001122,
1011202010112020,
#BPMCHANGE 142
100000100100200000200000101010100100200000200000, //47
#BPMCHANGE 140
#GOGOSTART
1111222211112222,
1111222211112222,
1122112211221122,
1122112211221122,
1211212212112122,
1211212212112122,
1121221211212212,
#BPMCHANGE 139
1121221211212212, //55
#BPMCHANGE 140
1011201110112021,
1011201110112011,
1011201110112021,
1011201110212011,
1011211110112121,
100000100100200100100100100000202020200000100100,
1011211110112121,
1011211220212122, //63
#GOGOEND
11221122,
1020102012102120,
1010202010102020,
1020102012102120,
1110202011102020,
1120112012102120,
1110202011102020,
1120112212102120, //71
#GOGOSTART
1221211212212112,
1221211212212112,
1212212112122121,
1212212120404040,
#GOGOEND
7,
8,
0, //78
#END
COURSE:Hard
LEVEL:6
BALLOON:16
SCOREINIT:430,1730
SCOREDIFF:110
#START
10021200,
10021200,
11121200,
1011101010102000,
1011101010201000,
1011101010102000,
1011101010201000,
10210020,
10210120,
10210020,
1000201000102220, //11
11221120,
11222120,
11221120,
11212120,
11221120,
11222120,
11221120,
11212120, //19
11211122,
11222122,
11211122,
11212122,
11211122,
11222122,
11211120,
#MEASURE 2/4
#BPMCHANGE 100
22002200, //27
#MEASURE 4/4
1020101110102000,
1011011010102020,
1020101110102000,
1022022010102020,
1020101110102020,
1011011010102020,
1020101110102020,
1022022020002200, //35
1011101020101110,
1020000020002200,
1011101020101110,
12002222,
1011101020101110,
1020000020002200,
1011101020101110,
200000200000200000200000500000000008
#BPMCHANGE 95.824
#SCROLL 1.04
000000000000, //43
#BPMCHANGE 140
#SCROLL 1
11001122,
11001122,
11221122,
#BPMCHANGE 142
11221120, //47
#BPMCHANGE 140
#GOGOSTART
1110101011101010,
1110101010000000,
1110101011101010,
1110101010000000,
1110101011101010,
1110101020000000,
1110101011101010,
#BPMCHANGE 139
1110101020200000, //55
#BPMCHANGE 140
1110101011101010,
1110101010102000,
1110101011101010,
1110101010202000,
1110101011101010,
1110101020222000,
1110101011101010,
1110100220202020, //63
#GOGOEND
11021102,
12021212,
11021102,
12021212,
11221122,
12121212,
11221122,
1020100220201020, //71
#GOGOSTART
1110101011101010,
1110101020202000,
1110101011101010,
1110101020404040,
#GOGOEND
7,
8,
0, //78
#END
COURSE:Normal
LEVEL:5
BALLOON:10
SCOREINIT:530,2840
SCOREDIFF:150
#START
10002200,
10002200,
10002200,
10102200,
10102200,
10102200,
10101200,
10010020,
10010120,
10010020,
10010120, //11
10201120,
10202120,
10201120,
10202220,
10201120,
10202120,
10201120,
10202220, //19
11201120,
11202120,
11201120,
11202220,
11201120,
11202120,
11201120,
#MEASURE 2/4
#BPMCHANGE 100
22, //27
#MEASURE 4/4
10200120,
1001001010000000,
10200120,
2002002020000000,
10200120,
1001001010000000,
10200120,
2002002020000000, //35
01011010,
11002020,
01011010,
11002220,
01011010,
11002020,
01011010,
200000200000200000000000500000000008
#BPMCHANGE 95.824
#SCROLL 1.04
000000000000, //43
#BPMCHANGE 140
#SCROLL 1
1012,
1012,
1012,
#BPMCHANGE 142
1012,
#BPMCHANGE 140
#GOGOSTART
11101110,
11101000,
11101110,
11101000,
11101110,
11102000,
11101110,
#BPMCHANGE 139
11102000, //55
#BPMCHANGE 140
11201022,
11201120,
11201022,
11201220,
11201022,
11201220,
11201022,
11202220, //63
#GOGOEND
30001110,
10002220,
30001110,
10002220,
30001110,
10002220,
30001110,
10002220, //71
#GOGOSTART
11101110,
11102000,
11101111,
11102444,
#GOGOEND
7,
8,
0, //78
#END
COURSE:Easy
LEVEL:4
BALLOON:8
SCOREINIT:660,5830
SCOREDIFF:250
#START
1,
1,
1,
12,
11,
12,
11,
10010000,
10010000,
10010000,
10010000, //11
1,
2,
1,
2,
3,
4,
3,
4, //19
10010000,
1,
10010000,
2,
10010000,
1,
10010000,
#MEASURE 2/4
#BPMCHANGE 100
2, //27
#MEASURE 4/4
1200,
11,
1200,
22,
1200,
11,
1200,
22, //35
01001010,
01000000,
01001010,
02000000,
01001010,
01000000,
01001010,
500000000000000000000000000000000008
#BPMCHANGE 95.824
#SCROLL 1.04
000000000000, //43
#BPMCHANGE 140
#SCROLL 1
11,
22,
11,
#BPMCHANGE 142
22, //47
#BPMCHANGE 140
#GOGOSTART
1110,
1110,
1110,
1110,
1110,
1120,
1110,
#BPMCHANGE 139
1120, //55
#BPMCHANGE 140
00200022,
0202,
00200022,
00200220,
00200022,
00200220,
00200022,
0222, //63
#GOGOEND
31,
1022,
31,
1022,
3011,
1022,
3011,
1022, //71
#GOGOSTART
1110,
1120,
1111,
1124,
#GOGOEND
7,
8,
0, //78
#END