Files
Thonker2 a735b92b63 The Unexpected 2018 April Fools update... and some Mochi Consumption PSA
02 Anime
Sora no Parade (Fixed Track, Added NORMAL Chart)

07 Game Music
Café de Party Night (Fixed Track and TITLE, Added NORMAL Chart)
It’s Better to Create One Cute Girl Than to Create the World in 7 Days (Fixed Track and TITLE, Added NORMAL Chart)
Kimi to Boku no Mirai (Added Oira Charts)
Koku Gin no Tsubasa (Fixed Track and TITLE, Added HARD/NORMAL Chart)
Koku Vyrn no Tsubasa (Fixed Title, MANIAC Track, Trimmed MANIAC Chart)
Mahou no Note (Fixed Track and TITLE, Added NORMAL Chart)
Never Ending Fantasy (Fixed Track, Added NORMAL Chart)
Sanbagarasu Otoko Uta (Fixed Track, Added NORMAL Chart)
Sora no Michishirube (Added Oira Charts)
Souku Hana no Mai (Fixed Track, Added NORMAL Chart)
The Dragon Knights (Fixed Track and TITLE, Added NORMAL Chart)
The Ultimate (Fixed Track and BPM, Added HARD/NORMAL Chart)
Yozora no Shizuku (Fixed Track and BPM, Added NORMAL Chart)
Oira Ending (This is the playable credits for the Oira app with its own chart that does not have a fumenwiki article)

09 Namco Original
Omochi de Mambo (Updated SUBTITLE[EN])
2026-01-25 01:10:44 +08:00

353 lines
3.7 KiB
Plaintext

//TJADB Project
TITLE:The Ultimate
TITLEJA:ジ・アルティメット
SUBTITLE:--Tsutomu Narita feat. Fubito Endo/Granblue Fantasy
SUBTITLEJA:オイラ
BPM:144
WAVE:The Ultimate.ogg
OFFSET:-0.000
DEMOSTART:107.900
COURSE:Oni
LEVEL:10
BALLOON:9,4,9,38
SCOREINIT:360
SCOREDIFF:90
#START
0,
3000000000000011,
0110000000000000,
3000000000000011,
000100100000000000000000000000000000201010100000,
3000000000000011,
0110000000000000,
50008021,
1102007000000080, //9
1121112111211121,
1121112111211121,
1121112111211121,
1121112111211111,
1121112111211121,
1121112111211121,
1121112111211121,
1121112111211111,
1020102010120121,
1020102010210212,
1020102020110121,
2012012120120121,
1020102010120121,
200000100200000100200100200000100200000100201010, //23
1020112011211121,
1020112011211121,
1020112010201120,
100000200000100100200100100100100200101010200000,
1020112011211121,
1020112011211121,
1020112010201120,
100000200000100100200100100100100200101010200000, //31
100000201010200000100200100000201010200000100100,
100000201010200000100200100000200100200000100100,
100000201010200000100200100000201010200000100100,
100000201010200000100200100000200100100100100100,
1020112010201120,
1020112010210120,
1020112010201120,
1020112010210120,
100000200000101010200000200000100200000100100100,
1000201021111120, //41
3004003040030040,
3004003022111122,
3004003040030040,
3004003011111111,
1012012122120121,
1012012120120121,
1012012122120121,
2112112112112111, //49
1020021020120120,
1020021020120120,
0210050000000000,
08,
1020021020120120,
1020021020120120,
21050000,
08, //57
1020112010201120,
1020112010210120,
1020112010201120,
1020112010210121,
1020112010201120,
1020112010211111,
1000000000112010,
3003004004070080, //65
#GOGOSTART
1022111110221111,
1022111110221122,
1022111110221111,
1022111110221122,
1022111110221111,
1022111110221122,
50080112,
05008000, //73
1022111110221111,
1022111110221122,
1022111110221111,
1022111110221122,
1022111110221111,
1022111110221122,
78,
30040043,
7,
0008,
#BARLINEOFF
2, //84
#END
COURSE:Hard
LEVEL:7
BALLOON:9,12
SCOREINIT:520
SCOREDIFF:130
#START
0,
30000003,
0300000000000000,
30000003,
0300000000002000,
30000003,
0300000000000000,
58,
7008, //9
15,
8212,
58,
12,
15,
8122,
1012,
1021,
10200201,
10201201,
20010020,
2001002000100200,
50080102,
2001001020030000, //23
1020102020010000,
1020102020010010,
5,
8000000010111000,
1020102020010000,
1020102020010010,
5,
8000000010111000, //31
12211221,
12211220,
12211221,
12211210,
12121212,
12121215,
08,
50080000,
12121212,
10014040, //41
1222,
20202021,
1222,
2000200020010010,
1002001020010020,
1002001010020010,
1002002010020020,
4003004003004000, //49
1002002020020010,
1002002020020010,
0010050000000000,
08,
1002002020010020,
1002002020010020,
10050000,
08, //57
1000200010020010,
1000200010010010,
10250000,
8,
1000200010020010,
1000200010020010,
1000000000111000,
3003004004003000, //65
#GOGOSTART
3003004030030040,
3003004030030040,
3003004030030040,
3003004010101010,
3003004030030040,
3003004030030040,
50080112,
05008000, //73
3003004030030040,
3003004030030040,
3003004030030040,
3003004010101010,
3003004030030040,
3003004030030040,
58,
30040043,
7,
82,
#BARLINEOFF
1, //84
#END
COURSE:Normal
LEVEL:3
BALLOON:
SCOREINIT:1250
SCOREDIFF:320
#START
0,
10000001,
0100000000000000,
10000001,
0100000000000000,
10000001,
0100000000000000,
1,
2, //9
1,
2,
1,
2,
1,
2,
1,
2,
1,
1,
2,
11,
2,
1, //23
1,
0,
1,
0,
1,
0,
1,
12, //31
12,
12,
12,
1,
1,
1,
2,
0,
1,
1, //41
12,
1,
12,
1022,
12,
12,
12,
1, //49
1,
2,
1,
11,
1,
2,
1,
1, //57
1,
1,
2,
0,
1,
1,
1,
1001001000000000, //65
#GOGOSTART
1212,
1212,
1212,
1,
1212,
1212,
1,
1, //73
1212,
1212,
1212,
1,
1212,
1212,
1,
2,
5,
8,
#BARLINEOFF
2, //84
#END