539 lines
7.6 KiB
Plaintext
539 lines
7.6 KiB
Plaintext
//TJADB Project
|
|
TITLE:Tower of Babel
|
|
TITLEJA:バベルの塔
|
|
SUBTITLE:--Norio Nakagata & Ryuichi Takada/Tower of Babel
|
|
BPM:130.94
|
|
WAVE:Tower of Babel.ogg
|
|
OFFSET:-2.169
|
|
DEMOSTART:66.842
|
|
|
|
COURSE:Oni
|
|
LEVEL:8
|
|
BALLOON:4,4
|
|
SCOREINIT:730
|
|
SCOREDIFF:195
|
|
|
|
|
|
#START
|
|
|
|
|
|
300000000111100000000011,
|
|
#BPMCHANGE 125.86
|
|
#SCROLL 1.04
|
|
100011100011100000101010,
|
|
#BPMCHANGE 127.31
|
|
#SCROLL 1.02
|
|
101121101102,
|
|
#BPMCHANGE 129.2
|
|
#SCROLL 1.01
|
|
101121121200,
|
|
#BPMCHANGE 128.4
|
|
#SCROLL 1
|
|
101121101102,
|
|
#BPMCHANGE 126.44
|
|
122121122200,
|
|
#BPMCHANGE 126.43
|
|
122202122200,
|
|
#BPMCHANGE 128.8
|
|
122202102200,
|
|
122202122200,
|
|
#BPMCHANGE 128.59
|
|
102122111222,
|
|
#BPMCHANGE 127.15
|
|
101121101102,
|
|
#BPMCHANGE 128.13
|
|
101121121200,
|
|
101111101102,
|
|
#BPMCHANGE 128
|
|
122121122200,
|
|
#BPMCHANGE 127.01
|
|
211111211111,
|
|
#BPMCHANGE 130.01
|
|
#SCROLL 0.98
|
|
211111211200,
|
|
#MEASURE 2/4
|
|
#BPMCHANGE 126.44
|
|
#SCROLL 1
|
|
,
|
|
#MEASURE 4/4
|
|
#BPMCHANGE 128
|
|
3,
|
|
121211121211,
|
|
100112200200,
|
|
111221121211,
|
|
100101200200,
|
|
111221121211,
|
|
120112200200,
|
|
122121121211,
|
|
200222200200,
|
|
211221100000,
|
|
#BPMCHANGE 129.39
|
|
111222122122,
|
|
#BPMCHANGE 129.6
|
|
111222121211,
|
|
#BPMCHANGE 125.28
|
|
#SCROLL 1.03
|
|
111222122122,
|
|
#BPMCHANGE 128
|
|
#SCROLL 1
|
|
100010001000200020002000100020001000500000080000,
|
|
#BPMCHANGE 128.8
|
|
102121102121,
|
|
#BPMCHANGE 127.21
|
|
102121102121,
|
|
#BPMCHANGE 128
|
|
102121211122,
|
|
102121202000,
|
|
300211100211,
|
|
100000001000200050000008000000001000000010000000,
|
|
100010000011100020100010,
|
|
700000000000800000000000500000000008000000000000,
|
|
#BPMCHANGE 126.82
|
|
100121101121,
|
|
#BPMCHANGE 129.2
|
|
100121101121,
|
|
#BPMCHANGE 128
|
|
101100221112,
|
|
#BPMCHANGE 127.21
|
|
101100112112,
|
|
|
|
#GOGOSTART
|
|
#BPMCHANGE 128.4
|
|
300211100211,
|
|
100000001000200050000008000000001000000010000000,
|
|
#BPMCHANGE 128
|
|
100010000011100020100010,
|
|
700000000000800000000000600000000008000000000000,
|
|
|
|
#GOGOEND
|
|
100121101121,
|
|
100121101121,
|
|
101100221112,
|
|
101100112112,
|
|
000000000000100020001000200010002000100001010101,
|
|
0111,
|
|
#BPMCHANGE 128.39
|
|
101010
|
|
#SCROLL 0.98
|
|
#BPMCHANGE 132.51
|
|
101010,
|
|
#MEASURE 9/8
|
|
#BPMCHANGE 139.67
|
|
#SCROLL 0.96
|
|
300030004000300040003000
|
|
#SCROLL 1
|
|
#BPMCHANGE 161.5
|
|
000,
|
|
#MEASURE 4/4
|
|
#BPMCHANGE 129.6
|
|
000000100000100011100000,
|
|
#MEASURE 3/4
|
|
#BPMCHANGE 125.92
|
|
200011100000000000,
|
|
#BPMCHANGE 129
|
|
200011100000000000,
|
|
#BPMCHANGE 128
|
|
#MEASURE 4/4
|
|
1,
|
|
|
|
|
|
#END
|
|
|
|
|
|
COURSE:Hard
|
|
LEVEL:5
|
|
SCOREINIT:820
|
|
SCOREDIFF:245
|
|
|
|
|
|
#START
|
|
|
|
|
|
33,
|
|
#BPMCHANGE 125.86
|
|
#SCROLL 1.04
|
|
300300300111,
|
|
#BPMCHANGE 127.31
|
|
#SCROLL 1.02
|
|
101101101102,
|
|
#BPMCHANGE 129.2
|
|
#SCROLL 1.01
|
|
101101202100,
|
|
#BPMCHANGE 128.4
|
|
#SCROLL 1
|
|
101101101102,
|
|
#BPMCHANGE 126.44
|
|
102200122200,
|
|
#BPMCHANGE 126.43
|
|
122202100000,
|
|
#BPMCHANGE 128.8
|
|
122202100000,
|
|
122202100000,
|
|
#BPMCHANGE 128.59
|
|
100000000000500000000000000000000000000008000000,
|
|
#BPMCHANGE 127.15
|
|
101101101102,
|
|
#BPMCHANGE 128.13
|
|
101101202100,
|
|
101101101102,
|
|
#BPMCHANGE 128
|
|
102200122200,
|
|
#BPMCHANGE 127.01
|
|
212000212000,
|
|
#BPMCHANGE 130.01
|
|
#SCROLL 0.98
|
|
212000211200,
|
|
#MEASURE 2/4
|
|
#BPMCHANGE 126.44
|
|
#SCROLL 1
|
|
,
|
|
#MEASURE 4/4
|
|
#BPMCHANGE 128
|
|
3,
|
|
000310,
|
|
100111100000,
|
|
100221100000,
|
|
100111100000,
|
|
100221100000,
|
|
110112200200,
|
|
200221100000,
|
|
100222200000,
|
|
100221100000,
|
|
#BPMCHANGE 129.39
|
|
111222,
|
|
#BPMCHANGE 129.605
|
|
100000001000000010000000200000002000000000100100,
|
|
#BPMCHANGE 125.28
|
|
#SCROLL 1.03
|
|
111222,
|
|
#BPMCHANGE 128
|
|
#SCROLL 1
|
|
101010211111,
|
|
#BPMCHANGE 128.8
|
|
200212100212,
|
|
#BPMCHANGE 127.21
|
|
100202200000,
|
|
#BPMCHANGE 128
|
|
200000001202,
|
|
122220,
|
|
300111100111,
|
|
1330,
|
|
500000000000000000000008000000001000100000001000,
|
|
500000000000000000000000000000000008000000000000,
|
|
#BPMCHANGE 126.82
|
|
100111100000,
|
|
#BPMCHANGE 129.2
|
|
100121100000,
|
|
#BPMCHANGE 128
|
|
101100022222,
|
|
#BPMCHANGE 127.21
|
|
101100112112,//43
|
|
|
|
#GOGOSTART
|
|
#BPMCHANGE 128.4
|
|
300111100111,
|
|
1330,
|
|
#BPMCHANGE 128
|
|
500000000000000000000008000000001000100000001000,
|
|
500000000000000000000000000000000008000000000000,//47
|
|
|
|
#GOGOEND
|
|
100111100000,
|
|
100121100000,
|
|
101100200000,
|
|
101100112112,
|
|
,
|
|
0111,
|
|
#BPMCHANGE 128.394
|
|
111
|
|
#SCROLL 0.98
|
|
#BPMCHANGE 132.51
|
|
111,
|
|
#MEASURE 9/8
|
|
#BPMCHANGE 139.675
|
|
#SCROLL 0.96
|
|
300030003000300030003000
|
|
#SCROLL 1
|
|
#BPMCHANGE 161.499
|
|
000,
|
|
#MEASURE 4/4
|
|
#BPMCHANGE 129.604
|
|
000000100000100011100000,
|
|
#MEASURE 3/4
|
|
#BPMCHANGE 125.92
|
|
200011100000000000,
|
|
#BPMCHANGE 129
|
|
200011100000000000,
|
|
#BPMCHANGE 128
|
|
#MEASURE 4/4
|
|
3,
|
|
|
|
|
|
#END
|
|
|
|
|
|
COURSE:Normal
|
|
LEVEL:6
|
|
BALLOON:9,9
|
|
SCOREINIT:970
|
|
SCOREDIFF:330
|
|
|
|
|
|
#START
|
|
|
|
|
|
33,
|
|
#BPMCHANGE 125.86
|
|
#SCROLL 1.04
|
|
3330,
|
|
#BPMCHANGE 127.31
|
|
#SCROLL 1.02
|
|
101100100000,
|
|
#BPMCHANGE 129.2
|
|
#SCROLL 1.01
|
|
101100200000,
|
|
#BPMCHANGE 128.4
|
|
#SCROLL 1
|
|
101100100000,
|
|
#BPMCHANGE 126.44
|
|
101100200000,
|
|
#BPMCHANGE 126.43
|
|
102200100000,
|
|
#BPMCHANGE 128.8
|
|
102200100000,
|
|
102200100000,
|
|
#BPMCHANGE 128.59
|
|
101100101100,
|
|
#BPMCHANGE 127.15
|
|
101100100000,
|
|
#BPMCHANGE 128.13
|
|
101100200000,
|
|
101100100000,
|
|
#BPMCHANGE 128
|
|
101100100000,
|
|
#BPMCHANGE 127.01
|
|
1212,
|
|
#BPMCHANGE 130.01
|
|
#SCROLL 0.98
|
|
1212,
|
|
#MEASURE 2/4
|
|
#BPMCHANGE 126.44
|
|
#SCROLL 1
|
|
,
|
|
#MEASURE 4/4
|
|
#BPMCHANGE 128
|
|
3,
|
|
000110,
|
|
100101100000,
|
|
100111100000,
|
|
100101100000,
|
|
100111100000,
|
|
100202200000,
|
|
100222200000,
|
|
100202200000,
|
|
100222200000,
|
|
#BPMCHANGE 129.39
|
|
111200,
|
|
#BPMCHANGE 129.605
|
|
111200,
|
|
#BPMCHANGE 125.28
|
|
#SCROLL 1.03
|
|
111200,
|
|
#BPMCHANGE 128
|
|
#SCROLL 1
|
|
111210,
|
|
#BPMCHANGE 128.8
|
|
200202200202,
|
|
#BPMCHANGE 127.21
|
|
2220,
|
|
#BPMCHANGE 128
|
|
200000002202,
|
|
2,
|
|
33,
|
|
1230,
|
|
500000000000000000000008000000001000100000000000,
|
|
70000008,
|
|
#BPMCHANGE 126.82
|
|
100111100000,
|
|
#BPMCHANGE 129.2
|
|
100111100000,
|
|
#BPMCHANGE 128
|
|
102200200000,
|
|
#BPMCHANGE 127.21
|
|
102200100000,//43
|
|
|
|
#GOGOSTART
|
|
#BPMCHANGE 128.4
|
|
33,
|
|
1230,
|
|
#BPMCHANGE 128
|
|
500000000000000000000008000000001000100000000000,
|
|
70000008,//47
|
|
|
|
#GOGOEND
|
|
100111100000,
|
|
100111100000,
|
|
102200200000,
|
|
102200200000,
|
|
,
|
|
0111,
|
|
#BPMCHANGE 128.394
|
|
111
|
|
#SCROLL 0.98
|
|
#BPMCHANGE 132.51
|
|
300,
|
|
#MEASURE 9/8
|
|
#BPMCHANGE 139.675
|
|
#SCROLL 0.96
|
|
300030000000000000000000
|
|
#SCROLL 1
|
|
#BPMCHANGE 161.499
|
|
000,
|
|
#MEASURE 4/4
|
|
#BPMCHANGE 129.604
|
|
0110,
|
|
#MEASURE 3/4
|
|
#BPMCHANGE 125.92
|
|
100011100000000000,
|
|
#BPMCHANGE 129
|
|
100011100000000000,
|
|
#BPMCHANGE 128
|
|
#MEASURE 4/4
|
|
3,
|
|
|
|
|
|
#END
|
|
|
|
|
|
COURSE:Easy
|
|
LEVEL:4
|
|
SCOREINIT:690
|
|
SCOREDIFF:295
|
|
|
|
|
|
#START
|
|
|
|
|
|
33,
|
|
#BPMCHANGE 125.86
|
|
#SCROLL 1.04
|
|
3330,
|
|
#BPMCHANGE 127.31
|
|
#SCROLL 1.02
|
|
101100100000,
|
|
#BPMCHANGE 129.2
|
|
#SCROLL 1.01
|
|
1210,
|
|
#BPMCHANGE 128.4
|
|
#SCROLL 1
|
|
101100100000,
|
|
#BPMCHANGE 126.44
|
|
1210,
|
|
#BPMCHANGE 126.43
|
|
31,
|
|
#BPMCHANGE 128.8
|
|
42,
|
|
31,
|
|
#BPMCHANGE 128.59
|
|
1110,
|
|
#BPMCHANGE 127.15
|
|
101100100000,
|
|
#BPMCHANGE 128.13
|
|
1210,
|
|
101100100000,
|
|
#BPMCHANGE 128
|
|
1210,
|
|
#BPMCHANGE 127.01
|
|
12,
|
|
#BPMCHANGE 130.01
|
|
#SCROLL 0.98
|
|
12,
|
|
#MEASURE 2/4
|
|
#BPMCHANGE 126.44
|
|
#SCROLL 1
|
|
,
|
|
#MEASURE 4/4
|
|
#BPMCHANGE 128
|
|
3,
|
|
1100,
|
|
1210,
|
|
1210,
|
|
1210,
|
|
1210,
|
|
1120,
|
|
1120,
|
|
1120,
|
|
1120,
|
|
#BPMCHANGE 129.39
|
|
100220,
|
|
#BPMCHANGE 129.605
|
|
1110,
|
|
#BPMCHANGE 125.28
|
|
#SCROLL 1.03
|
|
100220,
|
|
#BPMCHANGE 128
|
|
#SCROLL 1
|
|
2210,
|
|
#BPMCHANGE 128.8
|
|
11,
|
|
#BPMCHANGE 127.21
|
|
1210,
|
|
#BPMCHANGE 128
|
|
100000001100,
|
|
1,
|
|
33,
|
|
1230,
|
|
500000000000000000000008000000000000000000000000,
|
|
3,
|
|
#BPMCHANGE 126.82
|
|
100101100000,
|
|
#BPMCHANGE 129.2
|
|
100101100000,
|
|
#BPMCHANGE 128
|
|
1011000000000,
|
|
#BPMCHANGE 127.21
|
|
1011000000000,//43
|
|
|
|
#GOGOSTART
|
|
#BPMCHANGE 128.4
|
|
33,
|
|
1230,
|
|
#BPMCHANGE 128
|
|
500000000000000000000008000000000000000000000000,
|
|
3,//47
|
|
|
|
#GOGOEND
|
|
100101100000,
|
|
100101100000,
|
|
101100000000,
|
|
101100100100,
|
|
,
|
|
0111,
|
|
#BPMCHANGE 128.394
|
|
1
|
|
#SCROLL 0.98
|
|
#BPMCHANGE 132.51
|
|
3,
|
|
#MEASURE 9/8
|
|
#BPMCHANGE 139.675
|
|
#SCROLL 0.96
|
|
300000000000300000000000
|
|
#SCROLL 1
|
|
#BPMCHANGE 161.499
|
|
000,
|
|
#MEASURE 4/4
|
|
#BPMCHANGE 129.604
|
|
0110,
|
|
#MEASURE 3/4
|
|
#BPMCHANGE 125.92
|
|
210,
|
|
#BPMCHANGE 129
|
|
210,
|
|
#BPMCHANGE 128
|
|
#MEASURE 4/4
|
|
3,
|
|
|
|
|
|
#END
|
|
|