01 Pop Mayonaka no Door~Stay with me (Fixed Oni (bar 8,27,38,40), Hard (bar 6,27,40,44), Normal (bar 5,6,10,14,18)) Phony (Fixed SUBTITLEJA, removed lyrics) 03 Vocaloid Yoidore Shirazu (minor fixes) 06 Classical Funiculi Funicula (Fixed BPM/HS) La Campanella (Fixed BPM/HS) 07 Game Music XEVIOUS Taisou (minor fixes) 09 Namco Original Kakashi-Hime: Princess Scarecrow Nijiiro Yumeiro Taikoiro (added Old Audio/Chart) Yumeutsutsu Catharsis (Fixed Oni (bar 39,48), Hard (bar 39))
493 lines
5.3 KiB
Plaintext
493 lines
5.3 KiB
Plaintext
//TJADB Project
|
|
TITLE:XEVIOUS Taisou
|
|
TITLEJA:ゼビウス体操
|
|
SUBTITLE:--Yuri Misumi feat. Yoshihito Yano/XEVIOUS
|
|
SUBTITLEJA:
|
|
BPM:130.48
|
|
WAVE:XEVIOUS Taisou.ogg
|
|
OFFSET:-3.614
|
|
DEMOSTART:57.155
|
|
|
|
COURSE:Edit
|
|
LEVEL:9
|
|
BALLOON:
|
|
SCOREINIT:490,1430
|
|
SCOREDIFF:128
|
|
|
|
#START
|
|
0,
|
|
#BPMCHANGE 130.33
|
|
1001202010201000,
|
|
#BPMCHANGE 129.22
|
|
43043000,
|
|
#BPMCHANGE 130.01
|
|
1111222210001050,
|
|
000000000000000000000000000008000000000000000000, //5
|
|
|
|
1011201022102120,
|
|
1011201020122020,
|
|
1011201022102120,
|
|
1011201020122020,
|
|
|
|
1011221022102122,
|
|
1011221020122022,
|
|
1011221022102122,
|
|
1011221020122022, //13
|
|
|
|
1111222211112222,
|
|
1111222211112222,
|
|
1112221211122212,
|
|
1112221211122212,
|
|
|
|
1122121211221212,
|
|
1122121211221212,
|
|
1,
|
|
0, //21
|
|
|
|
1122102212121020,
|
|
1120102211221020,
|
|
1122102211212020,
|
|
1122101211121020,
|
|
|
|
1222121212021020,
|
|
1122120211211020,
|
|
1211201021221020,
|
|
1121210211212020, //29
|
|
|
|
#GOGOSTART
|
|
2212101121101120,
|
|
1121201122102011,
|
|
2021212022112022,
|
|
1012121011221020,
|
|
|
|
2212101121101120,
|
|
1121201122102011,
|
|
2021212022112022,
|
|
1012121011221020, //37
|
|
|
|
2212121121101120,
|
|
1121221122102011,
|
|
2021212122112022,
|
|
1012121211221020,
|
|
|
|
2212121121121122,
|
|
100000200100200200100100200200100100200010102000,
|
|
100000200100200100200100200200100100200020201000,
|
|
500000000000000000000000000000000000000008000000, //45
|
|
#GOGOEND
|
|
|
|
30200100,
|
|
10200100,
|
|
40200100,
|
|
10200100,
|
|
|
|
41201121,
|
|
2012201010122010,
|
|
1211221212112212,
|
|
12202022, //53
|
|
|
|
1122102212121020,
|
|
1120102211221020,
|
|
3030302212121020,
|
|
1122111211121020,
|
|
|
|
1222112212221122,
|
|
1122121211211020,
|
|
1211201021221020,
|
|
1121211221212040,
|
|
|
|
#SCROLL 3
|
|
33,
|
|
1111121200003000,
|
|
0,
|
|
0,
|
|
0, //66
|
|
#END
|
|
|
|
|
|
COURSE:Oni
|
|
LEVEL:7
|
|
BALLOON:7,7,7
|
|
SCOREINIT:930,2850
|
|
SCOREDIFF:263
|
|
|
|
//Balloon hits were 8,8,10 in AC4/AC5/CS2.
|
|
|
|
#START
|
|
0,
|
|
#BPMCHANGE 130.33
|
|
1001101010001000,
|
|
#BPMCHANGE 129.22
|
|
22022000,
|
|
#BPMCHANGE 130.01
|
|
3,
|
|
0, //5
|
|
|
|
10010120,
|
|
10010120,
|
|
10010120,
|
|
10010121,
|
|
|
|
10010120,
|
|
10010120,
|
|
10010120,
|
|
10010121, //13
|
|
|
|
01101011,
|
|
01101012,
|
|
01101011,
|
|
01101212,
|
|
|
|
01101011,
|
|
01101012,
|
|
3,
|
|
0, //21
|
|
|
|
1110100020202000,
|
|
2220102210101000,
|
|
12102220,
|
|
2020111011221000,
|
|
|
|
0221111111011000,
|
|
100100200000100100000100050000000000800000000000,
|
|
1212100021212000,
|
|
2011120112211000, //29
|
|
|
|
#GOGOSTART
|
|
32012002,
|
|
10210120,
|
|
10210120,
|
|
10210121,
|
|
|
|
10210122,
|
|
10210122,
|
|
10210122,
|
|
10211111, //37
|
|
|
|
700000000000080000100100,
|
|
1102,
|
|
10210120,
|
|
10210120,
|
|
|
|
700000000000080000100100,
|
|
100100001111,
|
|
100100000222,
|
|
700000000000080000000000, //45
|
|
#GOGOEND
|
|
|
|
3,
|
|
0,
|
|
10000100,
|
|
10000100,
|
|
|
|
1002200010022000,
|
|
1002201010022010,
|
|
1211211112112111,
|
|
1, //53
|
|
|
|
1112100022212000,
|
|
1110222211111000,
|
|
1010100021122000,
|
|
1100111111112000,
|
|
|
|
1010100012211000,
|
|
1010111021121000,
|
|
1111100022222000,
|
|
100000100100200200200200050000000000000008000000,
|
|
|
|
33,
|
|
3002,
|
|
0,
|
|
0,
|
|
0, //66
|
|
#END
|
|
|
|
|
|
COURSE:Hard
|
|
LEVEL:6
|
|
BALLOON:6,6,6
|
|
SCOREINIT:860,3310
|
|
SCOREDIFF:253
|
|
|
|
//AC4/AC5/CS2: Same chart as Oni.
|
|
|
|
#START
|
|
0,
|
|
#BPMCHANGE 130.33
|
|
1001101010001000,
|
|
#BPMCHANGE 129.22
|
|
22022000,
|
|
#BPMCHANGE 130.01
|
|
3,
|
|
0, //5
|
|
|
|
10010120,
|
|
10010120,
|
|
10010120,
|
|
10010121,
|
|
|
|
10010120,
|
|
10010120,
|
|
10010120,
|
|
10010121, //13
|
|
|
|
01101011,
|
|
01101012,
|
|
01101011,
|
|
01101212,
|
|
|
|
01101011,
|
|
01101012,
|
|
3,
|
|
0, //21
|
|
|
|
11102220,
|
|
1110101020202000,
|
|
11102220,
|
|
1010202011101000,
|
|
|
|
0011101010101000,
|
|
100100100000100000100000050000000000800000000000,
|
|
11102220,
|
|
1011101020202000, //29
|
|
|
|
#GOGOSTART
|
|
32012002,
|
|
10210120,
|
|
10210120,
|
|
10210121,
|
|
|
|
10210120,
|
|
10210120,
|
|
10210120,
|
|
10211111, //37
|
|
|
|
700000000000080000100100,
|
|
1102,
|
|
10210120,
|
|
10210120,
|
|
|
|
700000000000080000100100,
|
|
100100001111,
|
|
100100000222,
|
|
700000000000080000000000, //45
|
|
#GOGOEND
|
|
|
|
3,
|
|
0,
|
|
10000100,
|
|
10000100,
|
|
|
|
10200121,
|
|
10200121,
|
|
10200121,
|
|
1, //53
|
|
|
|
1011100020222000,
|
|
1110101020222000,
|
|
1010100022202000,
|
|
0011101020202000,
|
|
|
|
1010100022202000,
|
|
1010111020222000,
|
|
1111100022222000,
|
|
100000100100100000100000050000000000000008000000,
|
|
|
|
33,
|
|
3002,
|
|
0,
|
|
0,
|
|
0, //66
|
|
#END
|
|
|
|
|
|
COURSE:Normal
|
|
LEVEL:5
|
|
BALLOON:5,5,5
|
|
SCOREINIT:850,4340
|
|
SCOREDIFF:270
|
|
|
|
#START
|
|
0,
|
|
#BPMCHANGE 130.33
|
|
10111010,
|
|
#BPMCHANGE 129.22
|
|
22022000,
|
|
#BPMCHANGE 130.01
|
|
3,
|
|
0, //5
|
|
|
|
10010020,
|
|
10010000,
|
|
10010020,
|
|
10010001,
|
|
|
|
10010020,
|
|
10010000,
|
|
10010020,
|
|
10000001, //13
|
|
|
|
01101010,
|
|
01101020,
|
|
01101010,
|
|
01101020,
|
|
|
|
01101010,
|
|
01101010,
|
|
3,
|
|
0, //21
|
|
|
|
11102220,
|
|
11101130,
|
|
11102220,
|
|
22202240,
|
|
|
|
11101110,
|
|
100000100000100000000000050000000000800000000000,
|
|
11101110,
|
|
100000100000100000000500000000000008000000000000, //29
|
|
|
|
#GOGOSTART
|
|
30012000,
|
|
10010020,
|
|
10010120,
|
|
1100,
|
|
|
|
10010120,
|
|
10010020,
|
|
10010120,
|
|
1100, //37
|
|
|
|
700000000000080000100000,
|
|
1102,
|
|
10010020,
|
|
1102,
|
|
|
|
700000000000080000100000,
|
|
10100011,
|
|
10100022,
|
|
700000000000080000000000, //45
|
|
#GOGOEND
|
|
|
|
3,
|
|
0,
|
|
10000100,
|
|
10000100,
|
|
|
|
1212,
|
|
10111020,
|
|
11102220,
|
|
3, //53
|
|
|
|
11102220,
|
|
11101130,
|
|
11102220,
|
|
22202240,
|
|
|
|
11102220,
|
|
11101130,
|
|
11102220,
|
|
100000100000100000200000050000000000000008000000,
|
|
|
|
33,
|
|
3002,
|
|
0,
|
|
0,
|
|
0, //66
|
|
#END
|
|
|
|
|
|
COURSE:Easy
|
|
LEVEL:4
|
|
BALLOON:7,7,7
|
|
SCOREINIT:750,6330
|
|
SCOREDIFF:313
|
|
|
|
#START
|
|
0,
|
|
#BPMCHANGE 130.33
|
|
1011,
|
|
#BPMCHANGE 129.22
|
|
1,
|
|
#BPMCHANGE 130.01
|
|
3,
|
|
0, //5
|
|
|
|
12,
|
|
1,
|
|
12,
|
|
1,
|
|
|
|
12,
|
|
1,
|
|
12,
|
|
1, //13
|
|
|
|
1212,
|
|
1210,
|
|
1212,
|
|
1200,
|
|
|
|
1212,
|
|
1210,
|
|
3,
|
|
0, //21
|
|
|
|
1122,
|
|
1013,
|
|
1122,
|
|
1024,
|
|
|
|
1122,
|
|
100000000000000000000000500000000008000000000000,
|
|
1122,
|
|
100000000000000000000000500000000008000000000000, //29
|
|
|
|
#GOGOSTART
|
|
500000000000000000000008000000000000100000000000,
|
|
1100,
|
|
3300,
|
|
3300,
|
|
|
|
500000000000000000000008000000000000100000000000,
|
|
1100,
|
|
3300,
|
|
3300, //37
|
|
|
|
7008,
|
|
1100,
|
|
3300,
|
|
3300,
|
|
|
|
7008,
|
|
1100,
|
|
1100,
|
|
7008, //45
|
|
#GOGOEND
|
|
|
|
3,
|
|
1120,
|
|
3,
|
|
1210,
|
|
|
|
3,
|
|
1120,
|
|
3,
|
|
1210, //53
|
|
|
|
1122,
|
|
1013,
|
|
1122,
|
|
1024,
|
|
|
|
1122,
|
|
100000000000000000000000500000000008000000000000,
|
|
1122,
|
|
100000000000000000000000500000000008000000000000,
|
|
|
|
33,
|
|
3,
|
|
0,
|
|
0,
|
|
0, //66
|
|
#END |