Files

459 lines
5.1 KiB
Plaintext
Raw Permalink Blame History

This file contains ambiguous Unicode characters
This file contains Unicode characters that might be confused with other characters. If you think that this is intentional, you can safely ignore this warning. Use the Escape button to reveal them.
//TJADB Project
TITLE:YOUou MYshin!
TITLEJA:YOU往MY進!
SUBTITLE:--Yusuke Shirato feat. Asami Shimoda/THE iDOLM@STER MUST SONGS: Blue Album
SUBTITLEJA:
BPM:161
WAVE:YOUou MYshin.ogg
OFFSET:-1.719
DEMOSTART:59.727
SCENEPRESET:IMAS
COURSE:Oni
LEVEL:8
BALLOON:13,13,13,13
SCOREINIT:500,1480
SCOREDIFF:118
NOTESDESIGNER3:Kuboken
#START
0,
0,
2220102000102010,
2220102000102010,
2220102000102010,
2220102220112111, //6
#GOGOSTART
1022112011221120,
1022112011201021,
1022112011221120,
1022122012201021,
2022122011221120,
2022122012201021,
2022122012221222,
#GOGOEND
2022202022204010, //14
2011102010222010,
2011102010222010,
2011102011221122,
1022112210002010,
2011102010222010,
2011102010222010,
200000100100200000100100200010001000200000100000,
2211221120002010, //22
#GOGOSTART
30030007,
#GOGOEND
0008,
#GOGOSTART
40040070,
#GOGOEND
00000800,
#GOGOSTART
30030070,
#GOGOEND
00000800,
#GOGOSTART
40040007,
#GOGOEND
0008, //30
1111202011112020,
2222101022221010,
1111202011112020,
1111202022101000,
1020102022201020,
1020102022101000,
1020102022201020,
200200200200200200200200100100100100101010100000,
00303300, //39
#GOGOSTART
1011201110112011,
1011201110112011,
1011201110112011,
1011201120112011,
1011201110112011,
1011201120112010,
#GOGOEND
2022121022121200,
2022121012201220, //47
#GOGOSTART
1022102210221220,
1022102210221222,
1022102210221220,
1022102210221222,
1022102210221220,
1022102210221222,
500000000000000000000000000008000000000000300000,
3000303000302220,
500000000000000000000000000000000008000000300000,
30330343, //57
#GOGOEND
0011101110104030,
0011101110104030,
0022201110221122,
1122112220004030,
0011101110104030,
0011101110104030,
0022112211221122,
#MEASURE 6/4
121212220020101000000000, //65
#MEASURE 4/4
2010202120100000,
2010202120200000,
2010202120100000,
2010202120202120,
0, //70
#END
COURSE:Hard
LEVEL:7
BALLOON:10,10,10,10,8
SCOREINIT:530,2010
SCOREDIFF:143
#START
0,
0,
20110110,
20110110,
20110110,
2001002000000000,
#GOGOSTART
40340034,
40340334,
40340034,
40340334,
40340034,
40340334,
4000304000003020,
#GOGOEND
2022202022202010,
21121021,
21121021,
21121121,
21121021,
21121021,
21121021,
21121121,
2220102010002010,
#GOGOSTART
30030007,
#GOGOEND
0008,
#GOGOSTART
40040070,
#GOGOEND
00000800,
#GOGOSTART
30030070,
#GOGOEND
00000800,
#GOGOSTART
40040007,
#GOGOEND
0008,
1110202011102020,
0022201022201010,
1110202011102020,
1110202000202000,
10112210,
10122110,
10112210,
7008,
00303300,
#GOGOSTART
1011101110111011,
1011101110111011,
1011101110111011,
1011101110111011,
1011101110111011,
1011101110111010,
#GOGOEND
0,
0,
#GOGOSTART
1011101110111011,
1011101110111011,
1011101110111011,
1011101110111011,
1011101110111011,
1011101110111000,
500000000000000000000000000008000000000000300000,
30330300,
500000000000000000000000000000000008000000300000,
30330303,
#GOGOEND
01221003,
01221003,
0010202010222020,
1010222220000030,
01221003,
01221003,
0010202010222020,
#MEASURE 6/4
101022222000101000000000,
#MEASURE 4/4
21202100,
21202200,
21202100,
21202200,
0,
#END
COURSE:Normal
LEVEL:5
BALLOON:7,7,7,7,7
SCOREINIT:720,3810
SCOREDIFF:238
#START
0,
0,
0101,
0101,
0101,
0100,
#GOGOSTART
4303,
4303,
4303,
4303,
4303,
4303,
4303,
#GOGOEND
00000001,
01101002,
02202001,
01101110,
22202021,
01101001,
01101001,
01101110,
22202000,
#GOGOSTART
30030007,
#GOGOEND
0008,
#GOGOSTART
40040070,
#GOGOEND
00000800,
#GOGOSTART
30030070,
#GOGOEND
00000800,
#GOGOSTART
40040007,
#GOGOEND
0008,
1122,
1122,
1122,
10110220,
10112000,
10112000,
10112000,
7008,
00303300,
#GOGOSTART
1111,
10101011,
1111,
10101011,
1111,
10101011,
#GOGOEND
0,
0,
#GOGOSTART
1111,
10101011,
1111,
10101011,
1111,
10101011,
500000000000000000000000000008000000000000000000,
30030000,
500000000000000000000000000000000008000000000000,
30030001,
#GOGOEND
01101001,
01101001,
01110110,
22202001,
01101001,
01101001,
01101110,
#MEASURE 6/4
222020110000,
#MEASURE 4/4
20102100,
20102200,
20102100,
20102200,
0,
#END
COURSE:Easy
LEVEL:4
BALLOON:5
SCOREINIT:570,5170
SCOREDIFF:235
#START
0,
0,
0101,
0101,
0101,
0100,
#GOGOSTART
0303,
0303,
0303,
0303,
0303,
0303,
0303,
#GOGOEND
0,
1110,
1110,
1111,
1012,
1110,
1110,
1111,
2220,
#GOGOSTART
30030000,
#GOGOEND
0,
#GOGOSTART
40040000,
#GOGOEND
0,
#GOGOSTART
30030000,
#GOGOEND
0,
#GOGOSTART
40040000,
#GOGOEND
0,
11,
1110,
11,
1112,
11,
1110,
11,
7008,
00303300,
#GOGOSTART
1111,
1111,
1111,
1111,
1111,
1111,
#GOGOEND
0,
0,
#GOGOSTART
1111,
1111,
1111,
1111,
1111,
1111,
500000000000000000000000000008000000000000000000,
30030000,
500000000000000000000000000000000008000000000000,
30030000,
#GOGOEND
1110,
1110,
1111,
2220,
1110,
1110,
1111,
#MEASURE 6/4
222200,
#MEASURE 4/4
00100200,
00100200,
00100200,
00100200,
0,
#END