Files
2026-09-09 16:46:55 -04:00

302 lines
4.5 KiB
Plaintext
Raw Permalink Blame History

This file contains ambiguous Unicode characters
This file contains Unicode characters that might be confused with other characters. If you think that this is intentional, you can safely ignore this warning. Use the Escape button to reveal them.
//TJADB Project
TITLE:Yakusoku
TITLEJA:約束
SUBTITLE:--Koji Nakagawa feat. Asami Imai/THE iDOLM@STER SHINY FESTA: Honey Sound
SUBTITLEJA:
BPM:78
WAVE:Yakusoku.ogg
OFFSET:-1.011
DEMOSTART:70.616
SCENEPRESET:IMAS
COURSE:Oni
LEVEL:6
BALLOON:
SCOREINIT:1170,3920
SCOREDIFF:368
NOTESDESIGNER3:Kuboken
#START
#BARLINEOFF
0000000000000022,
#BARLINEON
22220000,
22,
20220000,
2, //5
#BARLINEOFF
0,
0,
0,
0, //9
#BARLINEON
10010011,
1000001000000011,
1011011000000000,
1011011100100011, //13
1010101100101010,
1000101100000022,
2020202200202020,
2000202200000000, //17
1010101100101010,
1000100100100000,
1010101000100022,
2000200020200200, //21
500000000000000000000000000000000008000000000000,
3030300000101011,
500000000000000000000000000000000008000000000100,
1011010110101011, //25
500000000000000000000000000000000008000000000200,
2022020220202020,
500000000000000000000000000000000008000000000100,
1011010110000011, //29
1011011000000011,
1011011000101011,
500000000000000000000000000000000000000000000008,
0,
#MEASURE 6/4
300000300000300000000000000000000000000000000000000000000111100000200200, //34
#MEASURE 4/4
#GOGOSTART
1001201002012002,
1011210212102210,
1001221001012001,
200000200100200200000100200222200200200200100000, //38
1001201110012002,
100000200100200100200000100000000022200200100100,
100000200100200200100000000000100000200000100022,
1021212000112022, //42
1000200100102000,
3330
#GOGOEND
0000, //44
#END
COURSE:Hard
LEVEL:5
BALLOON:
SCOREINIT:1110,4510
SCOREDIFF:350
#START
#BARLINEOFF
0,
#BARLINEON
20020000,
22,
20020000,
2,
#BARLINEOFF
0,
0,
0,
0,
#BARLINEON
10010011,
1000001000000011,
1011011000000000,
1011011100100011,
1010101100101010,
1000101100000022,
2020202200202020,
2000202200000000,
1010101100101010,
1000100100100000,
1010101000100022,
2000200020200200,
500000000000000000000000000000000008000000000000,
3030300000101011,
500000000000000000000000000000000008000000000100,
1011010110101011,
500000000000000000000000000000000008000000000200,
2022020220202020,
500000000000000000000000000000000008000000000100,
1011010110000011,
1011011000000011,
1011011000101011,
500000000000000000000000000000000000000000000008,
0,
#MEASURE 6/4
333000000333,
#MEASURE 4/4
#GOGOSTART
600000000000000000000000000000000008000000000100,
1011010110303030,
600000000000000000000000000000000008000000000200,
2022020220404040,
600000000000000000000000000000000008000000000100,
1011010110000030,
3003003000404030,
3003003000304030,
600000000000000000000000000000000008000000000000,
3330
#GOGOEND
0000,
#END
COURSE:Normal
LEVEL:2
BALLOON:
SCOREINIT:1230,8390
SCOREDIFF:720
#START
#BARLINEOFF
0,
#BARLINEON
2,
0,
2,
2,
#BARLINEOFF
0,
0,
0,
0,
#BARLINEON
10010000,
10010000,
10010000,
10000100,
1111,
1110,
2222,
2220,
1111,
1110,
1111,
2222,
500000000000000000000000000000000008000000000000,
33300000,
500000000000000000000000000000000008000000000000,
1110,
500000000000000000000000000000000008000000000000,
2220,
500000000000000000000000000000000008000000000000,
1110,
3003003000000000,
3003003000000000,
500000000000000000000000000000000000000000000008,
0,
#MEASURE 6/4
333000000000,
#MEASURE 4/4
#GOGOSTART
600000000000000000000000000000000008000000000000,
11101010,
600000000000000000000000000000000008000000000000,
22202220,
600000000000000000000000000000000008000000000000,
11101000,
3003003000404000,
3003003000404000,
600000000000000000000000000000000008000000000000,
3330
#GOGOEND
0000,
#END
COURSE:Easy
LEVEL:1
BALLOON:
SCOREINIT:1020,10280
SCOREDIFF:613
#START
#BARLINEOFF
0,
#BARLINEON
2,
0,
2,
0,
#BARLINEOFF
0,
0,
0,
0,
#BARLINEON
10010000,
10010000,
10010000,
10000100,
1110,
1110,
2220,
2220,
1111,
1110,
1111,
2222,
500000000000000000000000000000000008000000000000,
33300000,
500000000000000000000000000000000008000000000000,
11,
500000000000000000000000000000000008000000000000,
22,
500000000000000000000000000000000008000000000000,
11,
3003003000000000,
3003003000000000,
500000000000000000000000000000000000000000000008,
0,
#MEASURE 6/4
333000000000,
#MEASURE 4/4
#GOGOSTART
600000000000000000000000000000000008000000000000,
11,
600000000000000000000000000000000008000000000000,
20002022,
600000000000000000000000000000000008000000000000,
11,
3003003000000000,
3003003000000000,
600000000000000000000000000000000008000000000000,
3330
#GOGOEND
0000,
#END