Files
Thonker2 a735b92b63 The Unexpected 2018 April Fools update... and some Mochi Consumption PSA
02 Anime
Sora no Parade (Fixed Track, Added NORMAL Chart)

07 Game Music
Café de Party Night (Fixed Track and TITLE, Added NORMAL Chart)
It’s Better to Create One Cute Girl Than to Create the World in 7 Days (Fixed Track and TITLE, Added NORMAL Chart)
Kimi to Boku no Mirai (Added Oira Charts)
Koku Gin no Tsubasa (Fixed Track and TITLE, Added HARD/NORMAL Chart)
Koku Vyrn no Tsubasa (Fixed Title, MANIAC Track, Trimmed MANIAC Chart)
Mahou no Note (Fixed Track and TITLE, Added NORMAL Chart)
Never Ending Fantasy (Fixed Track, Added NORMAL Chart)
Sanbagarasu Otoko Uta (Fixed Track, Added NORMAL Chart)
Sora no Michishirube (Added Oira Charts)
Souku Hana no Mai (Fixed Track, Added NORMAL Chart)
The Dragon Knights (Fixed Track and TITLE, Added NORMAL Chart)
The Ultimate (Fixed Track and BPM, Added HARD/NORMAL Chart)
Yozora no Shizuku (Fixed Track and BPM, Added NORMAL Chart)
Oira Ending (This is the playable credits for the Oira app with its own chart that does not have a fumenwiki article)

09 Namco Original
Omochi de Mambo (Updated SUBTITLE[EN])
2026-01-25 01:10:44 +08:00

128 lines
1.0 KiB
Plaintext

//TJADB Project
TITLE:Yozora no Shizuku
TITLEJA:ヨゾラのシズク
SUBTITLE:--Tsutomu Narita feat. Natsumi Takamori/Granblue Fantasy
SUBTITLEJA:オイラ
BPM:86.5
WAVE:Yozora no Shizuku.ogg
OFFSET:-0.143
DEMOSTART:61.039
COURSE:Hard
LEVEL:4
BALLOON:
SCOREINIT:800
SCOREDIFF:200
#START
0,
2,
2002,
2,
22,
1011000000101010,
1011000000000000,
1011000000101010,
1010001110000000, //9
2022000000202020,
2020002220000000,
1001001010000022,
2002002220002000,
0011101100101010,
1011015000008000,
0022202200202020,
2000202500000800,
0011101100100010,
0022202220200020,
3033000000403040,
60080343,
6008, //22
#GOGOSTART
3443,
3000400030000011,
11110101,
33403000,
3444,
4000400030000011,
11110102,
2020205000800033, //30
33330303,
60000803,
6,
8002,
1022,
10000222,
2122,
5,
0,
08, //40
#END
COURSE:Normal
LEVEL:1
BALLOON:
SCOREINIT:3000
SCOREDIFF:750
#START
0,
2,
0,
0,
0,
1,
0,
1,
0, //9
2,
2,
11,
22,
1,
1,
2,
2,
1,
2,
12,
12,
10000220, //22
#GOGOSTART
12,
12,
11,
2002,
12,
12,
11,
22, //30
1,
2,
1,
1,
2,
1,
22,
5,
0,
08, //40
#END