Files
2026-09-09 16:46:55 -04:00

450 lines
5.1 KiB
Plaintext
Raw Permalink Blame History

This file contains ambiguous Unicode characters
This file contains Unicode characters that might be confused with other characters. If you think that this is intentional, you can safely ignore this warning. Use the Escape button to reveal them.
//TJADB Project
TITLE:livE
TITLEJA:livE
SUBTITLE:--Yukari Hashimoto feat. Naomi Wakabayashi/THE iDOLM@STER MUST SONGS: Red Album
SUBTITLEJA:
BPM:143
WAVE:livE.ogg
OFFSET:-1.962
DEMOSTART:102.661
SCENEPRESET:IMAS
COURSE:Oni
LEVEL:8
BALLOON:
SCOREINIT:470,1490
SCOREDIFF:120
NOTESDESIGNER3:Kuboken
#START
30000011,
0,
30000001,
0000000022202220,
1020102210201022,
1020102210201022,
1120102012221030,
0, //8
1020100010201011,
12210220,
1020100010201022,
22101000,
1020100010201022,
21202010,
1010200010102022,
1020102212201022, //16
1010201110102022,
1010202011102022,
1010201110102022,
1020102210002022,
1020101100102011,
0010201022202000,
1020101100102022,
100000200000200100100000400000400000000000101010, //24
100000100000200000000000000000200200101010100000,
000000300000300000000000200000000000200200101010,
1020102210112020,
100000200000100000200200100000200000100000101010,
1010201100102011,
0010201100222020,
1020112010222010,
000000100000100000101010100000100000101010101010, //32
#GOGOSTART
1020102210201012,
2010201022112211,
1020102210221010,
0022202010221020,
1022202010221020,
1022202010221020,
1120112210102012,
2210201110222000, //40
3020102210201012,
2010201022112211,
1020102210221010,
0022202010221020,
1010201210102012,
100000400000300000000000000000200200100000101010,
1010201210102012,
100000400000300000000000200200200200200200101010, //48
1010201022201022,
1010201022201022,
#GOGOEND
1010201022101020,
02200040, //52
10000001,
0010100000002222,
10101011,
1000100010221022,
1000100010221022,
1000100010221022,
10101015,
000000000000000000000000000008000000000000000000, //60
#GOGOSTART
3020102210201012,
2010201022112211,
1020102210221010,
0022202010221020,
1010201210102012,
100000400000300000000000000000200200100000101010,
1010201210102012,
100000400000300000000000200200200200200200101010, //68
1010201022201022,
1010201022201022,
1010201022201022,
1010201022201222,
1010201022201022,
1022201022201222,
1122112212221030,
#GOGOEND
03300000,
0, //77
#END
COURSE:Hard
LEVEL:4
BALLOON:13,13
SCOREINIT:640,2980
SCOREDIFF:180
#START
0,
0,
30000001,
0011,
5,
000000000000000000000000000000000000000000000008,
00000003,
0,
10101101,
12220000,
10101102,
02202000,
10101102,
02201010,
500000000000000000000000000000000000000008000000,
0,
10201122,
11220020,
10201122,
02202000,
10110121,
01212020,
500000000000000000000000000008000000000000000000,
00004400,
1010200000222030,
03302020,
10101121,
01212020,
10210121,
01210220,
10101021,
01101040,
#GOGOSTART
12101211,
01212020,
12101211,
0020200020222020,
1000000020222020,
1000000020222020,
10101121,
0010200010222000,
30101211,
01212020,
10101211,
02201010,
11211121,
0030300000000000,
11211121,
03304040,
9009,
8,
#GOGOEND
00000002,
02200040,
10000001,
01100000,
10101011,
00002222,
10002222,
10002222,
10101015,
000000000000000000000000000008000000000000000000,
#GOGOSTART
30101211,
01212020,
10101211,
02201010,
11211121,
03300000,
11211121,
03304040,
9009,
8,
2303,
2303,
2303,
2303,
20300043,
#GOGOEND
03300000,
0,
#END
COURSE:Normal
LEVEL:4
BALLOON:13,10,10
SCOREINIT:710,4190
SCOREDIFF:220
#START
0,
0,
0,
0011,
5,
000000000000000000000000000000000000000000000008,
00000003,
0,
10101001,
10110000,
10101002,
02202000,
10101001,
01101000,
500000000000000000000000000000000000000008000000,
0,
10201001,
10110000,
10201002,
02202000,
10110101,
0022,
500000000000000000000000000008000000000000000000,
00004400,
11000003,
03300000,
10101110,
1122,
7,
08,
10101011,
0004,
#GOGOSTART
10101011,
01002020,
10101011,
0022,
1022,
1022,
10101011,
0110,
30101011,
01002020,
10101101,
0022,
11001103,
03300000,
11001103,
03304040,
9009,
8,
#GOGOEND
0,
0004,
10000001,
01100000,
10101011,
0022,
1022,
1022,
10101015,
000000000000000000000000000008000000000000000000,
#GOGOSTART
30101011,
01002020,
10101101,
0022,
11001103,
03300000,
11001103,
03304040,
9009,
8,
0303,
0303,
0303,
0303,
00300033,
#GOGOEND
03300000,
0,
#END
COURSE:Easy
LEVEL:3
BALLOON:13,10,10
SCOREINIT:630,5920
SCOREDIFF:220
#START
0,
0,
0,
0011,
5,
000000000000000000000000000000000000000000000008,
00000003,
0,
11,
1100,
11,
2220,
11,
1111,
500000000000000000000000000000000000000008000000,
0,
11,
1100,
11,
2220,
1110,
1022,
500000000000000000000000000008000000000000000000,
00004400,
10101003,
0,
10101003,
0,
7,
08,
10101003,
0004,
#GOGOSTART
11,
1011,
11,
1011,
1022,
2011,
10001005,
000000000000000000000000000008000000000000000000,
31,
1011,
11,
1,
10101003,
0,
10101003,
0044,
9009,
8,
#GOGOEND
0,
0004,
10000001,
01000000,
11,
1011,
1022,
2011,
10001005,
000000000000000000000000000008000000000000000000,
#GOGOSTART
31,
1011,
11,
1,
10101003,
0,
10101003,
0044,
9009,
8,
0303,
0303,
0303,
0303,
00300033,
#GOGOEND
03300000,
0,
#END