414 lines
5.1 KiB
Plaintext
414 lines
5.1 KiB
Plaintext
//TJADB Project
|
|
TITLE:relations -New Chart-
|
|
TITLEJA:relations
|
|
SUBTITLE:--Koji Nakagawa feat. 765PRO ALLSTARS/THE iDOLM@STER
|
|
SUBTITLEJA:新譜面 「アイドルマスター」より
|
|
BPM:142
|
|
WAVE:relations 765PRO ALLSTARS Version.ogg
|
|
OFFSET:-1.918
|
|
DEMOSTART:76.031
|
|
SCENEPRESET:IMAS
|
|
|
|
|
|
COURSE:Oni
|
|
LEVEL:8
|
|
BALLOON:
|
|
SCOREINIT:520,1580
|
|
SCOREDIFF:135
|
|
|
|
#START
|
|
1000001110001011,
|
|
1010001000111000,
|
|
1000001110001011,
|
|
1010001000112000,
|
|
|
|
1000001110001011,
|
|
2020001000112000,
|
|
1000001110001011,
|
|
2020001000111000,
|
|
500000000000000000000000000000000000000008000000,
|
|
1111100030300000, //10
|
|
|
|
10021121,
|
|
0011201000102000,
|
|
10021121,
|
|
0011201000221010,
|
|
|
|
2010112000102210,
|
|
1011201000221010,
|
|
2010112000112010,
|
|
0020200202022000, //18
|
|
|
|
1011201101012020,
|
|
1011201101012000,
|
|
1011201101012020,
|
|
1011201101012000,
|
|
|
|
1011102020111020,
|
|
2011102011102000,
|
|
1110222011102220,
|
|
1120112011111000, //26
|
|
|
|
1020112010211020,
|
|
1020112010211020,
|
|
1020112010211020,
|
|
1021102010211020,
|
|
|
|
1020112010211020,
|
|
1020112010211020,
|
|
1020112010211020,
|
|
32413241, //34
|
|
|
|
1020112010211020,
|
|
1020112010211020,
|
|
1020112010211020,
|
|
1020112011201000,
|
|
|
|
1020112011112000,
|
|
1020112011122000,
|
|
1111202011112020,
|
|
500000000000000000000000000000000000000008000000,
|
|
1110111011101110,
|
|
30000300, //44
|
|
|
|
#GOGOSTART
|
|
1011102011112000,
|
|
1011102011112000,
|
|
1011201120112000,
|
|
500000000000000000000000000000000008000000000000,
|
|
|
|
1011202011112020,
|
|
1110111011111000,
|
|
1022202011112020,
|
|
3003003000000000, //52
|
|
|
|
1011102011112011,
|
|
1011102011112000,
|
|
1110300022204000,
|
|
600000000000000000000008000000000000300000000000,
|
|
|
|
3022201011111000,
|
|
3022201111103000,
|
|
300000500000000008000000300000500000000008000000,
|
|
3333, //60
|
|
#GOGOEND
|
|
|
|
1011202101012020,
|
|
1111202101012000,
|
|
1011202201012020,
|
|
1120112011112000,
|
|
|
|
1011202101012020,
|
|
1011201201012020,
|
|
1110220102211020,
|
|
1020111101021020, //68
|
|
|
|
1110111011121020,
|
|
1111111030300000,
|
|
2020202202022020,
|
|
2020202202022020,
|
|
0, //73
|
|
#END
|
|
|
|
|
|
COURSE:Hard
|
|
LEVEL:6
|
|
BALLOON:15
|
|
SCOREINIT:650,2520
|
|
SCOREDIFF:173
|
|
|
|
#START
|
|
10101021,
|
|
02210120,
|
|
10101012,
|
|
0020201000222000,
|
|
|
|
10101021,
|
|
02210120,
|
|
10101012,
|
|
02210110,
|
|
5,
|
|
000000000008000000000000300000300000000000000000, //10
|
|
|
|
20211000,
|
|
20211011,
|
|
20211011,
|
|
20211120,
|
|
|
|
10201220,
|
|
10201120,
|
|
5,
|
|
000000000000000008000000000000000000100000100000, //18
|
|
|
|
20211011,
|
|
20211120,
|
|
20211120,
|
|
20211120,
|
|
|
|
10201220,
|
|
10201120,
|
|
5,
|
|
000000000000000008000000000000000000000000000000, //26
|
|
|
|
10121011,
|
|
10121220,
|
|
10101210,
|
|
11101011,
|
|
|
|
10121011,
|
|
10121220,
|
|
10101210,
|
|
2220200022202000, //34
|
|
|
|
10121011,
|
|
10121220,
|
|
10101210,
|
|
11101011,
|
|
|
|
10101212,
|
|
10101012,
|
|
20101227,
|
|
0,
|
|
8,
|
|
30000400, //44
|
|
|
|
#GOGOSTART
|
|
1011100010111000,
|
|
1011101000404000,
|
|
1011100010111000,
|
|
2220222022202000,
|
|
|
|
1011100010111000,
|
|
2022200020222000,
|
|
1011101110111000,
|
|
3003003000000000, //52
|
|
|
|
1011100010111000,
|
|
1011101000404000,
|
|
1011100010111000,
|
|
2220222022202000,
|
|
|
|
1110004040001110,
|
|
1110004040001110,
|
|
600000000000000000000000000000000008000000000000,
|
|
3333, //60
|
|
#GOGOEND
|
|
|
|
0303,
|
|
0303,
|
|
0000402202204000,
|
|
0000402202204000,
|
|
|
|
0303,
|
|
0303,
|
|
0000402202204000,
|
|
0000402202204000, //68
|
|
|
|
5,
|
|
000000000008000000000000300000300000000000000000,
|
|
3,
|
|
0,
|
|
0, //73
|
|
#END
|
|
|
|
|
|
COURSE:Normal
|
|
LEVEL:5
|
|
BALLOON:12
|
|
SCOREINIT:650,3430
|
|
SCOREDIFF:200
|
|
|
|
#START
|
|
0,
|
|
0,
|
|
0303,
|
|
0303,
|
|
|
|
0303,
|
|
0303,
|
|
0303,
|
|
0303,
|
|
5,
|
|
000000000008000000000000300000300000000000000000, //10
|
|
|
|
10011000,
|
|
20022010,
|
|
10011020,
|
|
20022020,
|
|
|
|
10010220,
|
|
10012020,
|
|
5,
|
|
000000000000000008000000000000000000000000000000, //18
|
|
|
|
10011020,
|
|
20022010,
|
|
10011020,
|
|
20022020,
|
|
|
|
10010220,
|
|
10012020,
|
|
5,
|
|
000000000000000000000000000008000000000000000000, //26
|
|
|
|
10101011,
|
|
10102220,
|
|
10101011,
|
|
1110,
|
|
|
|
10101011,
|
|
10102220,
|
|
1111,
|
|
22202220, //34
|
|
|
|
10101011,
|
|
10102220,
|
|
10101011,
|
|
1110,
|
|
|
|
10101011,
|
|
10101022,
|
|
20202207,
|
|
0,
|
|
8,
|
|
3, //44
|
|
|
|
#GOGOSTART
|
|
11101010,
|
|
11101440,
|
|
11101010,
|
|
2222,
|
|
|
|
11102220,
|
|
3330,
|
|
22201110,
|
|
3003003000000000, //52
|
|
|
|
11101010,
|
|
11101440,
|
|
11101010,
|
|
2222,
|
|
|
|
30044030,
|
|
30044030,
|
|
600000000000000000000000000000000008000000000000,
|
|
3333, //60
|
|
#GOGOEND
|
|
|
|
0303,
|
|
0303,
|
|
0444,
|
|
0444,
|
|
|
|
0303,
|
|
0303,
|
|
0444,
|
|
0444, //68
|
|
|
|
5,
|
|
000000000008000000000000300000300000000000000000,
|
|
3,
|
|
0,
|
|
0, //73
|
|
#END
|
|
|
|
|
|
COURSE:Easy
|
|
LEVEL:3
|
|
BALLOON:8
|
|
SCOREINIT:530,4820
|
|
SCOREDIFF:178
|
|
|
|
#START
|
|
0,
|
|
0,
|
|
0303,
|
|
0303,
|
|
|
|
0303,
|
|
0303,
|
|
0303,
|
|
0303,
|
|
5,
|
|
000000000008000000000000300000300000000000000000, //10
|
|
|
|
1,
|
|
2011,
|
|
1022,
|
|
2011,
|
|
|
|
1022,
|
|
2011,
|
|
5,
|
|
000000000000000008000000000000000000000000000000, //18
|
|
|
|
1011,
|
|
1022,
|
|
2011,
|
|
1011,
|
|
|
|
1022,
|
|
2011,
|
|
5,
|
|
000000000000000000000000000008000000000000000000, //26
|
|
|
|
1012,
|
|
1110,
|
|
1012,
|
|
1110,
|
|
|
|
1012,
|
|
1110,
|
|
1012,
|
|
1122, //34
|
|
|
|
1012,
|
|
1110,
|
|
1012,
|
|
1110,
|
|
|
|
1212,
|
|
1110,
|
|
10201007,
|
|
0,
|
|
8,
|
|
3, //44
|
|
|
|
#GOGOSTART
|
|
1110,
|
|
10100440,
|
|
1110,
|
|
2222,
|
|
|
|
1110,
|
|
33,
|
|
2222,
|
|
3, //52
|
|
|
|
1110,
|
|
10100440,
|
|
1110,
|
|
2222,
|
|
|
|
34,
|
|
34,
|
|
600000000000000000000000000000000008000000000000,
|
|
600000000000000000000000000000000000000008000000, //60
|
|
#GOGOEND
|
|
|
|
0303,
|
|
0303,
|
|
0404,
|
|
0404,
|
|
|
|
0303,
|
|
0303,
|
|
0404,
|
|
0404, //68
|
|
|
|
5,
|
|
000000000008000000000000300000300000000000000000,
|
|
3,
|
|
0,
|
|
0, //73
|
|
#END |