Other Fixes: 01 Pop Nai Mono Nedari (Fixed BPM) 02 Anime Anataboshi (Trimmed Chart, Fixed Normal 46-50 to match with 3DS2/AC12, Normal(DP) 36(2P), Easy 38, Easy(DP) 33(1P&2P)) Odoru Ponpokorin (Fixed Filename typos, combined Old and New versions into single folder) Nameko no Uta (Moved from "04 Children and Folk" folder to "02 Anime" folder) Netsujou no Spectrum (Moved from "01 Pop" folder to "02 Anime" folder) 05 Variety PERFECT HUMAN (Moved from "01 Pop" folder to "05 Variety" folder)
866 lines
9.2 KiB
Plaintext
866 lines
9.2 KiB
Plaintext
//TJADB Project
|
|
TITLE:Anataboshi
|
|
TITLEJA:アナタボシ
|
|
SUBTITLE:--Yuya Saito feat. Milky Way/Kirarin☆Revolution
|
|
SUBTITLEJA:「きらりん☆レボリューション」より
|
|
BPM:94.5
|
|
WAVE:Anataboshi.ogg
|
|
OFFSET:-2.851
|
|
DEMOSTART:55.820
|
|
|
|
COURSE:Edit
|
|
LEVEL:8
|
|
BALLOON:4
|
|
SCOREINIT:660
|
|
SCOREDIFF:173
|
|
|
|
#START
|
|
100000000100200000100000202020100000200000000000,
|
|
1001201010201000,
|
|
1001201010201020,
|
|
100000000100200000100000500000000000000008000000, //4
|
|
|
|
#BPMCHANGE 189
|
|
1000102010001011,
|
|
1000102010001011,
|
|
10121210,
|
|
1020100011112222,
|
|
|
|
1000102010001011,
|
|
1000102010001011,
|
|
10121210,
|
|
100000200000100000000000700000000000080000000000, //12
|
|
|
|
10211011,
|
|
20212012,
|
|
10212120,
|
|
3330,
|
|
|
|
10101210,
|
|
1011201010221020,
|
|
10101210,
|
|
1011201022222000, //20
|
|
|
|
10211011,
|
|
20212012,
|
|
10212120,
|
|
3330,
|
|
|
|
10101210,
|
|
1011201010221020,
|
|
10101210,
|
|
1011201022222000, //28
|
|
|
|
1110222011102220,
|
|
1120112011221120,
|
|
1110222011102220,
|
|
2210221022112000,
|
|
|
|
1110222011102220,
|
|
1120112011221120,
|
|
1111222211112222,
|
|
1122112030006000,
|
|
0,
|
|
000000000000000008000000000000000000300000000000, //38
|
|
|
|
#GOGOSTART
|
|
1011201020003000,
|
|
1012201020001022,
|
|
1011202210112022,
|
|
1021201020003000,
|
|
|
|
1011201020003000,
|
|
1012201020001022,
|
|
1011201060000000,
|
|
000000000000000000000008000000000000300000000000, //46
|
|
|
|
1011201020003000,
|
|
1012201020001022,
|
|
1011202210112022,
|
|
1021201020003000,
|
|
|
|
1011201020003000,
|
|
1012201020001022,
|
|
1012202210122022,
|
|
500000000000000000000008000000000000300000000000,
|
|
1111100022222000,
|
|
1122112211112222, //56
|
|
#GOGOEND
|
|
|
|
1000102010001011,
|
|
1000102010001011,
|
|
10121210,
|
|
1020100011112222,
|
|
|
|
1000102010001011,
|
|
1000102010001011,
|
|
10121210,
|
|
12105000,
|
|
|
|
0,
|
|
000000000008000000000000000000000000000000000000,
|
|
0,
|
|
0, //68
|
|
#END
|
|
|
|
|
|
COURSE:Oni
|
|
LEVEL:5
|
|
BALLOON:7,7,10
|
|
SCOREINIT:760
|
|
SCOREDIFF:210
|
|
|
|
#START
|
|
1022202011102020,
|
|
1022202011102022,
|
|
1022202011102020,
|
|
1022202011102222, //4
|
|
|
|
#BPMCHANGE 189
|
|
10221020,
|
|
10221020,
|
|
10221020,
|
|
11201122,
|
|
|
|
10221020,
|
|
10221020,
|
|
10221020,
|
|
11203000, //12
|
|
|
|
20111011,
|
|
20112011,
|
|
20111110,
|
|
21102000,
|
|
|
|
20202120,
|
|
21101110,
|
|
20202120,
|
|
21111000, //20
|
|
|
|
20111011,
|
|
20112011,
|
|
20111110,
|
|
21102000,
|
|
|
|
20202120,
|
|
21101110,
|
|
20202120,
|
|
21111000, //28
|
|
|
|
12101210,
|
|
12121210,
|
|
21202120,
|
|
21212000,
|
|
|
|
12101210,
|
|
12121210,
|
|
2011100020111000,
|
|
21112050,
|
|
0,
|
|
000000000000000008000000000000000000200000000000, //38
|
|
|
|
#GOGOSTART
|
|
11212020,
|
|
11212022,
|
|
10221122,
|
|
1011202020002000,
|
|
|
|
11212020,
|
|
11212022,
|
|
1000202010112010,
|
|
70008022, //46
|
|
|
|
11212022,
|
|
11212022,
|
|
10221122,
|
|
1011202020002020,
|
|
|
|
11212022,
|
|
11212022,
|
|
1000202010112010,
|
|
70008022,
|
|
34,
|
|
700000000000000000000000000000000008000000000000, //56
|
|
#GOGOEND
|
|
|
|
10221020,
|
|
10221020,
|
|
10221020,
|
|
11201122,
|
|
|
|
10221020,
|
|
10221020,
|
|
10221020,
|
|
11205000,
|
|
|
|
000000000000000000000000000000000000000000000008,
|
|
0,
|
|
0,
|
|
0, //68
|
|
#END
|
|
|
|
|
|
COURSE:Hard
|
|
LEVEL:4
|
|
BALLOON:5,5,7
|
|
SCOREINIT:810
|
|
SCOREDIFF:240
|
|
|
|
#START
|
|
1000200011102000,
|
|
1000200011102020,
|
|
1000200011102000,
|
|
1000200011102000, //4
|
|
|
|
#BPMCHANGE 189
|
|
10111020,
|
|
10111020,
|
|
10111020,
|
|
11101000,
|
|
|
|
10111020,
|
|
10111020,
|
|
10111020,
|
|
11103000, //12, big note -> giant note in wii1
|
|
|
|
//giant note OK leads into AC12/3DS chart
|
|
20111010,
|
|
2121, //giant note perfect: 20112011, miss: 2120,
|
|
20111010, //giant note miss: 2110,
|
|
2120, //giant note perfect: 20112000,
|
|
|
|
2222, //giant note perfect: 20202220,
|
|
20111010,
|
|
2222,
|
|
20111000, //20
|
|
|
|
20111010,
|
|
2121,
|
|
20111010,
|
|
2120,
|
|
|
|
2222,
|
|
20111010,
|
|
2222,
|
|
20111000, //28
|
|
|
|
11101110,
|
|
1110,
|
|
22202220,
|
|
2220,
|
|
|
|
11101110,
|
|
1110,
|
|
11,
|
|
10112050,
|
|
0,
|
|
000000000000000008000000000000000000000000000000, //38
|
|
|
|
#GOGOSTART
|
|
10112020,
|
|
10112020,
|
|
10201120,
|
|
1110,
|
|
|
|
10112020,
|
|
10112020,
|
|
10201011,
|
|
78, //46
|
|
|
|
10112020,
|
|
10112020,
|
|
10201120,
|
|
1110,
|
|
|
|
10112020,
|
|
10112020,
|
|
10201011,
|
|
78,
|
|
33,
|
|
700000000000000000000000000000000008000000000000, //56
|
|
#GOGOEND
|
|
|
|
10111020,
|
|
10111020,
|
|
10111020,
|
|
11101000,
|
|
|
|
10111020,
|
|
10111020,
|
|
10111020,
|
|
11105000,
|
|
|
|
000000000000000000000000000000000000000000000008,
|
|
0,
|
|
0,
|
|
0, //68
|
|
#END
|
|
|
|
|
|
COURSE:Normal
|
|
LEVEL:4
|
|
|
|
STYLE:SINGLE
|
|
BALLOON:
|
|
SCOREINIT:1020
|
|
SCOREDIFF:388
|
|
|
|
#START
|
|
10201110,
|
|
1210,
|
|
10201110,
|
|
1210, //4
|
|
|
|
#BPMCHANGE 189
|
|
1110,
|
|
1110,
|
|
1110,
|
|
11100000,
|
|
|
|
1110,
|
|
1110,
|
|
1110,
|
|
11103000, //12
|
|
|
|
21,
|
|
22,
|
|
21,
|
|
22,
|
|
|
|
2222,
|
|
21,
|
|
2222,
|
|
2, //20
|
|
|
|
21,
|
|
22,
|
|
21,
|
|
22,
|
|
|
|
2222,
|
|
21,
|
|
2222,
|
|
2, //28
|
|
|
|
1110,
|
|
1,
|
|
2220,
|
|
2,
|
|
|
|
11,
|
|
22,
|
|
3,
|
|
3035,
|
|
0,
|
|
000000000000000008000000000000000000000000000000, //38
|
|
|
|
#GOGOSTART
|
|
1110,
|
|
1110,
|
|
22,
|
|
10111000,
|
|
|
|
1110,
|
|
1110,
|
|
1033,
|
|
500000000000000000000000000008000000000000000000, //46, giant note 3, in wii1
|
|
|
|
1110, //giant note perfect: 10111000, miss: 11,
|
|
1110, //giant note perfect: 10111000, miss: 11,
|
|
22, //giant note perfect: 2220,
|
|
10111000, //giant note OK: 1110, miss: 11,
|
|
|
|
1110,
|
|
1110,
|
|
1011,
|
|
500000000000000000000000000008000000000000000000,
|
|
33,
|
|
600000000000000000000000000000000008000000000000, //56
|
|
#GOGOEND
|
|
|
|
1110,
|
|
1110,
|
|
1110,
|
|
11101000,
|
|
|
|
1110,
|
|
1110,
|
|
1110,
|
|
11105000,
|
|
|
|
000000000000000000000000000000000000000000000008,
|
|
0,
|
|
0,
|
|
0, //68
|
|
#END
|
|
|
|
STYLE:DOUBLE
|
|
BALLOON:
|
|
SCOREINIT:1020
|
|
SCOREDIFF:388
|
|
|
|
#START P1
|
|
10201110,
|
|
1210,
|
|
10201110,
|
|
1210, //4
|
|
|
|
#BPMCHANGE 189
|
|
1110,
|
|
1110,
|
|
1110,
|
|
11100000,
|
|
|
|
1110,
|
|
1110,
|
|
1110,
|
|
11103000, //12
|
|
|
|
21,
|
|
22,
|
|
21,
|
|
22,
|
|
|
|
2222,
|
|
21,
|
|
2222,
|
|
2, //20
|
|
|
|
21,
|
|
22,
|
|
21,
|
|
22,
|
|
|
|
2222,
|
|
21,
|
|
2222,
|
|
2, //28
|
|
|
|
1110,
|
|
1110,
|
|
0,
|
|
0,
|
|
|
|
1110,
|
|
2220,
|
|
3,
|
|
3035,
|
|
0,
|
|
000000000000000008000000000000000000000000000000, //38
|
|
|
|
#GOGOSTART
|
|
1110,
|
|
1110,
|
|
22,
|
|
10111000,
|
|
|
|
1110,
|
|
1110,
|
|
1033, //46
|
|
500000000000000000000000000008000000000000000000, //46, giant note 3, in wii1
|
|
|
|
1110, //giant note perfect: 10111000, miss: 11,
|
|
1110, //giant note perfect: 10111000, miss: 11,
|
|
22, //giant note perfect: 2220,
|
|
10111000, //giant note OK: 1110, miss: 11,
|
|
|
|
1110,
|
|
1110,
|
|
1011,
|
|
500000000000000000000000000008000000000000000000,
|
|
33,
|
|
600000000000000000000000000000000008000000000000, //56
|
|
|
|
#GOGOEND
|
|
1110,
|
|
1110,
|
|
1110,
|
|
11101000,
|
|
|
|
1110,
|
|
1110,
|
|
1110,
|
|
11105000,
|
|
|
|
000000000000000000000000000000000000000000000008,
|
|
0,
|
|
0,
|
|
0, //68
|
|
#END
|
|
|
|
BALLOON:
|
|
SCOREINIT:1020
|
|
SCOREDIFF:388
|
|
|
|
#START P2
|
|
10201110,
|
|
1210,
|
|
10201110,
|
|
1210, //4
|
|
|
|
#BPMCHANGE 189
|
|
1110,
|
|
1110,
|
|
1110,
|
|
11100000,
|
|
|
|
1110,
|
|
1110,
|
|
1110,
|
|
11103000, //12
|
|
|
|
21,
|
|
22,
|
|
21,
|
|
22,
|
|
|
|
2222,
|
|
21,
|
|
2222,
|
|
2, //20
|
|
|
|
21,
|
|
22,
|
|
21,
|
|
22,
|
|
|
|
2222,
|
|
21,
|
|
2222,
|
|
2, //28
|
|
|
|
0,
|
|
0,
|
|
2220,
|
|
2220,
|
|
|
|
1110,
|
|
2220,
|
|
03,
|
|
3035,
|
|
0,
|
|
000000000000000008000000000000000000000000000000, //38
|
|
|
|
#GOGOSTART
|
|
1110,
|
|
1110,
|
|
22,
|
|
10111000,
|
|
|
|
1110,
|
|
1110,
|
|
1033,
|
|
500000000000000000000000000008000000000000000000, //46, giant note 3, in wii1
|
|
|
|
1110, //giant note perfect: 10111000, miss: 11,
|
|
1110, //giant note perfect: 10111000, miss: 11,
|
|
22, //giant note perfect: 2220,
|
|
10111000, //giant note OK: 1110, miss: 11,
|
|
|
|
1110,
|
|
1110,
|
|
1011,
|
|
500000000000000000000000000008000000000000000000,
|
|
33,
|
|
600000000000000000000000000000000008000000000000, //56
|
|
#GOGOEND
|
|
|
|
1110,
|
|
1110,
|
|
1110,
|
|
11101000,
|
|
|
|
1110,
|
|
1110,
|
|
1110,
|
|
11105000,
|
|
|
|
000000000000000000000000000000000000000000000008,
|
|
0,
|
|
0,
|
|
0, //68
|
|
#END
|
|
|
|
|
|
COURSE:Easy
|
|
LEVEL:3
|
|
|
|
STYLE:SINGLE
|
|
BALLOON:
|
|
SCOREINIT:830
|
|
SCOREDIFF:410
|
|
|
|
#START
|
|
1011,
|
|
1011,
|
|
1011,
|
|
11, //4
|
|
|
|
#BPMCHANGE 189
|
|
11,
|
|
11,
|
|
11,
|
|
1100,
|
|
|
|
11,
|
|
11,
|
|
11,
|
|
1130, //12
|
|
|
|
11,
|
|
11,
|
|
11,
|
|
1,
|
|
|
|
1110,
|
|
1,
|
|
1110,
|
|
1, //20
|
|
|
|
11,
|
|
11,
|
|
11,
|
|
1,
|
|
|
|
1110,
|
|
1,
|
|
1110,
|
|
1, //28
|
|
|
|
1,
|
|
11,
|
|
2,
|
|
22,
|
|
|
|
1,
|
|
1110,
|
|
33,
|
|
1035,
|
|
0,
|
|
000000000000000008000000000000000000000000000000, //38
|
|
|
|
#GOGOSTART
|
|
1110,
|
|
11,
|
|
1,
|
|
3,
|
|
|
|
1110,
|
|
11,
|
|
1033,
|
|
500000000000000000000000000008000000000000000000, //46
|
|
|
|
1110,
|
|
11,
|
|
1,
|
|
3,
|
|
|
|
1110,
|
|
11,
|
|
11,
|
|
500000000000000000000000000008000000000000000000,
|
|
33,
|
|
500000000000000000000000000008000000000000000000, //56
|
|
#GOGOEND
|
|
|
|
11,
|
|
11,
|
|
11,
|
|
1100,
|
|
|
|
11,
|
|
11,
|
|
11,
|
|
36,
|
|
|
|
000000000000000000000000000000000000000000000008,
|
|
0,
|
|
0,
|
|
0, //68
|
|
#END
|
|
|
|
STYLE:DOUBLE
|
|
BALLOON:
|
|
SCOREINIT:830
|
|
SCOREDIFF:410
|
|
|
|
#START P1
|
|
1011,
|
|
1011,
|
|
1011,
|
|
11, //4
|
|
|
|
#BPMCHANGE 189
|
|
11,
|
|
11,
|
|
11,
|
|
1100,
|
|
|
|
11,
|
|
11,
|
|
11,
|
|
1130, //12
|
|
|
|
11,
|
|
11,
|
|
11,
|
|
1,
|
|
|
|
1110,
|
|
1,
|
|
1110,
|
|
1, //20
|
|
|
|
11,
|
|
11,
|
|
11,
|
|
1,
|
|
|
|
1110,
|
|
1,
|
|
1110,
|
|
1, //28
|
|
|
|
11,
|
|
1110,
|
|
0,
|
|
0,
|
|
|
|
11,
|
|
1110,
|
|
33,
|
|
1035,
|
|
0,
|
|
000000000000000008000000000000000000000000000000, //38
|
|
|
|
#GOGOSTART
|
|
1110,
|
|
11,
|
|
1,
|
|
3,
|
|
|
|
1110,
|
|
11,
|
|
1033,
|
|
500000000000000000000000000008000000000000000000, //46
|
|
|
|
1110,
|
|
11,
|
|
1,
|
|
3,
|
|
|
|
1110,
|
|
11,
|
|
11,
|
|
500000000000000000000000000008000000000000000000,
|
|
33,
|
|
500000000000000000000000000008000000000000000000, //56
|
|
#GOGOEND
|
|
|
|
11,
|
|
11,
|
|
11,
|
|
1100,
|
|
|
|
11,
|
|
11,
|
|
11,
|
|
36,
|
|
|
|
000000000000000000000000000000000000000000000008,
|
|
0,
|
|
0,
|
|
0, //68
|
|
#END
|
|
|
|
BALLOON:
|
|
SCOREINIT:830
|
|
SCOREDIFF:410
|
|
|
|
#START P2
|
|
1011,
|
|
1011,
|
|
1011,
|
|
11, //4
|
|
#BPMCHANGE 189
|
|
11,
|
|
11,
|
|
11,
|
|
1100,
|
|
|
|
11,
|
|
11,
|
|
11,
|
|
1130, //12
|
|
|
|
11,
|
|
11,
|
|
11,
|
|
1,
|
|
|
|
1110,
|
|
1,
|
|
1110,
|
|
1, //20
|
|
|
|
11,
|
|
11,
|
|
11,
|
|
1,
|
|
|
|
1110,
|
|
1,
|
|
1110,
|
|
1, //28
|
|
|
|
0,
|
|
0,
|
|
22,
|
|
2220,
|
|
|
|
11,
|
|
1110,
|
|
33,
|
|
1035,
|
|
0,
|
|
000000000000000008000000000000000000000000000000, //38
|
|
|
|
#GOGOSTART
|
|
1110,
|
|
11,
|
|
1,
|
|
3,
|
|
|
|
1110,
|
|
11,
|
|
1033,
|
|
500000000000000000000000000008000000000000000000, //46
|
|
|
|
1110,
|
|
11,
|
|
1,
|
|
3,
|
|
|
|
1110,
|
|
11,
|
|
11,
|
|
500000000000000000000000000008000000000000000000,
|
|
33,
|
|
500000000000000000000000000008000000000000000000, //56
|
|
#GOGOEND
|
|
|
|
11,
|
|
11,
|
|
11,
|
|
1100,
|
|
|
|
11,
|
|
11,
|
|
11,
|
|
36,
|
|
|
|
000000000000000000000000000000000000000000000008,
|
|
0,
|
|
0,
|
|
0, //68
|
|
#END |