393 lines
4.1 KiB
Plaintext
393 lines
4.1 KiB
Plaintext
//TJADB Project
|
|
TITLE:Get Wild -New Audio/Chart-
|
|
TITLEJA:Get Wild
|
|
SUBTITLE:--TM NETWORK/City Hunter
|
|
SUBTITLEJA:新音源・譜面 「シティーハンター」より
|
|
BPM:132
|
|
WAVE:Get Wild.ogg
|
|
OFFSET:-1.938
|
|
DEMOSTART:61.938
|
|
|
|
COURSE:Edit
|
|
LEVEL:7
|
|
BALLOON:25
|
|
SCOREINIT:750,2470
|
|
SCOREDIFF:213
|
|
|
|
#START
|
|
0,
|
|
0,
|
|
0,
|
|
|
|
20202002,
|
|
2002002020000022,
|
|
2002002020220020,
|
|
2002002020003000, //7
|
|
|
|
#GOGOSTART
|
|
1001012210201020,
|
|
1001012210201020,
|
|
1001012210201020,
|
|
1120112011112020,
|
|
|
|
1001012210201020,
|
|
1001012210201020,
|
|
1001012210201020,
|
|
1120112011112011, //15
|
|
#GOGOEND
|
|
|
|
2012012110102010,
|
|
1110201010000011,
|
|
21011221,
|
|
1120112011112011,
|
|
|
|
2012012110102010,
|
|
1110201010000011,
|
|
21122121,
|
|
1120112011112020, //23
|
|
|
|
1120112011201120,
|
|
1120112011112011,
|
|
1020102011201020,
|
|
1120201120101020,
|
|
|
|
1120112011201120,
|
|
1120112011112010,
|
|
1020111010102010,
|
|
3333,
|
|
7,
|
|
000000000000000000000000000000080000000000100000, //33
|
|
|
|
#GOGOSTART
|
|
30303001,
|
|
1001201010002011,
|
|
2020112020111120,
|
|
1020002011112010,
|
|
|
|
30303001,
|
|
1001201010002011,
|
|
2020112020111120,
|
|
1020002011112010, //41
|
|
|
|
30303001,
|
|
1001201010002011,
|
|
2020112020111120,
|
|
1020002011112010,
|
|
|
|
30303001,
|
|
1001201010002011,
|
|
2020112040401120,
|
|
12023000, //49
|
|
#GOGOEND
|
|
|
|
0,
|
|
0, //51
|
|
#END
|
|
|
|
|
|
COURSE:Oni
|
|
LEVEL:8
|
|
BALLOON:18,5
|
|
SCOREINIT:610,1930
|
|
SCOREDIFF:165
|
|
|
|
#START
|
|
0,
|
|
0,
|
|
0,
|
|
|
|
1002202010022022,
|
|
1022021010221122,
|
|
1012021221220222,
|
|
1022112120221112, //7
|
|
|
|
#GOGOSTART
|
|
1012022210221220,
|
|
1012022210221210,
|
|
1012011210221110,
|
|
2221222120102020,
|
|
|
|
1012022210221220,
|
|
1012022210221210,
|
|
1012011210221110,
|
|
1022022030303030, //15
|
|
#GOGOEND
|
|
|
|
1011011010221220,
|
|
1011022010211120,
|
|
1011011010221220,
|
|
1011012210102020,
|
|
|
|
1011011010221220,
|
|
1011022010211120,
|
|
1011211120112020,
|
|
1011011040404040, //23
|
|
|
|
1012021010120210,
|
|
1012021010220122,
|
|
1010112110221220,
|
|
1012021020112011,
|
|
|
|
1012021010120210,
|
|
1012021010201120,
|
|
1021112110221220,
|
|
3020302030203022,
|
|
700000000000000000000000000000000000000000000008,
|
|
0012022221220220, //33
|
|
|
|
#GOGOSTART
|
|
3022102210210120,
|
|
1022122010120220,
|
|
1021202211211020,
|
|
1021011010211120,
|
|
|
|
1022102210210120,
|
|
1022122010120220,
|
|
1021202210112020,
|
|
1021022010221220, //41
|
|
|
|
3022102210210120,
|
|
1022122010120220,
|
|
1021202211211020,
|
|
1021011010211120,
|
|
|
|
1022102210210120,
|
|
1022122010120220,
|
|
1021202210112020,
|
|
1021011070008000,
|
|
#GOGOEND
|
|
|
|
0,
|
|
0, //51
|
|
#END
|
|
|
|
|
|
COURSE:Hard
|
|
LEVEL:5
|
|
BALLOON:14
|
|
SCOREINIT:820,3620
|
|
SCOREDIFF:258
|
|
|
|
#START
|
|
0,
|
|
0,
|
|
0,
|
|
|
|
1110,
|
|
1001002020000000,
|
|
1001002020000000,
|
|
1001002040000000, //7
|
|
|
|
#GOGOSTART
|
|
2002002010101000,
|
|
2002002010101000,
|
|
2002002010101000,
|
|
2220222010101010,
|
|
|
|
2002002010101000,
|
|
2002002010101000,
|
|
2002002010101000,
|
|
2002001040004000, //15
|
|
#GOGOEND
|
|
|
|
1002011010102000,
|
|
1002001010002011,
|
|
11011221,
|
|
10201121,
|
|
|
|
1002011010102000,
|
|
1002001010002011,
|
|
1010101110101020,
|
|
10201121, //23
|
|
|
|
2002001020020010,
|
|
2002001010000020,
|
|
12121122,
|
|
1001002020000010,
|
|
|
|
2002001020020010,
|
|
2002001010001000,
|
|
1,
|
|
3333,
|
|
700000000000000000000000000000000000000000000008,
|
|
00000001, //33
|
|
|
|
#GOGOSTART
|
|
10101001,
|
|
2011001010000011,
|
|
1010101110101000,
|
|
1022001030000010,
|
|
|
|
10101001,
|
|
2011001010000011,
|
|
1010101110101000,
|
|
1022001030000020, //41
|
|
|
|
20202001,
|
|
2011001010000011,
|
|
11121112,
|
|
1022001030000020,
|
|
|
|
20202001,
|
|
2011001010000011,
|
|
1010102010111020,
|
|
1022001030000000,
|
|
#GOGOEND
|
|
|
|
0,
|
|
0, //51
|
|
#END
|
|
|
|
|
|
COURSE:Normal
|
|
LEVEL:4
|
|
BALLOON:10
|
|
SCOREINIT:1000,6020
|
|
SCOREDIFF:420
|
|
|
|
#START
|
|
0,
|
|
0,
|
|
0,
|
|
|
|
1110,
|
|
10011000,
|
|
10011000,
|
|
10013000, //7
|
|
|
|
#GOGOSTART
|
|
20001110,
|
|
20001110,
|
|
20001110,
|
|
2033,
|
|
|
|
20001110,
|
|
20001110,
|
|
20001110,
|
|
2044, //15
|
|
#GOGOEND
|
|
|
|
1001000010000000,
|
|
1001000010000000,
|
|
1011,
|
|
30001110,
|
|
|
|
1001000020000000,
|
|
1001000020000000,
|
|
1022,
|
|
30001110, //23
|
|
|
|
1002000010020000,
|
|
1002000010000000,
|
|
1110,
|
|
1001000010000000,
|
|
|
|
1002000010020000,
|
|
1002000010001000,
|
|
1,
|
|
3333,
|
|
700000000000000000000000000000000000000000000008,
|
|
00000001, //33
|
|
|
|
#GOGOSTART
|
|
1110,
|
|
10011000,
|
|
1111,
|
|
10013001,
|
|
|
|
1110,
|
|
10011000,
|
|
1111,
|
|
10013002, //41
|
|
|
|
2220,
|
|
10011000,
|
|
1212,
|
|
10013002,
|
|
|
|
2220,
|
|
10011000,
|
|
1212,
|
|
10013000,
|
|
#GOGOEND
|
|
|
|
0,
|
|
0, //51
|
|
#END
|
|
|
|
|
|
COURSE:Easy
|
|
LEVEL:3
|
|
BALLOON:
|
|
SCOREINIT:960,9500
|
|
SCOREDIFF:745
|
|
|
|
#START
|
|
0,
|
|
0,
|
|
0,
|
|
|
|
1,
|
|
1,
|
|
11,
|
|
13, //7
|
|
|
|
#GOGOSTART
|
|
0011,
|
|
0011,
|
|
0011,
|
|
1033,
|
|
|
|
0011,
|
|
0011,
|
|
0011,
|
|
0033, //15
|
|
#GOGOEND
|
|
|
|
1,
|
|
1,
|
|
11,
|
|
3,
|
|
|
|
1,
|
|
1,
|
|
12,
|
|
3, //23
|
|
|
|
1210,
|
|
1210,
|
|
11,
|
|
11,
|
|
|
|
1210,
|
|
1210,
|
|
1,
|
|
1111,
|
|
500000000000000000000000000000000000000000000008,
|
|
0, //33
|
|
|
|
#GOGOSTART
|
|
1110,
|
|
11,
|
|
1110,
|
|
13,
|
|
|
|
1110,
|
|
11,
|
|
1110,
|
|
13, //41
|
|
|
|
2220,
|
|
11,
|
|
2220,
|
|
13,
|
|
|
|
2220,
|
|
11,
|
|
2220,
|
|
13,
|
|
#GOGOEND
|
|
|
|
0,
|
|
0, //51
|
|
#END |