Files
ESE/02 Anime/Grip/Grip.tja
T

246 lines
8.1 KiB
Plaintext

//TJADB Project
TITLE:Grip!
TITLEJA:Grip!
SUBTITLE:--Every Little Thing/Inuyasha
SUBTITLEJA:犬夜叉
BPM:119
WAVE:Grip.ogg
OFFSET:-3.969
DEMOSTART:58.412
COURSE:Oni
LEVEL:9
SCOREINIT:950
SCOREDIFF:220
#START
1000101110000000,
1000101110000010,
1011011000102020,
1000001110000010,
1000101110000000,
1000101110000010,
1011011000102020,
1000001110000010,
500000000000000000000000000000000000000000000008,
,
1011012000102000,
1011012000102010,
10101011,
1001002010002000,
1011012000102000,
1011012000102011,
1011012000102010,
1011012010000010,
1011012010102010,
1011012010102010,
1011012010102010,
1001002010002010,
1011012010102010,
1111,
500000000000000000000000000008000000000000100000,
10011000,
3333,
1021112101211020,
1021112101211020,
1021012111201120,
1021112101211120,
1011201120112011,
2011021120112011,
2011210120112010,
500000000008000000100000100010001000200000300000,
1021112101012020,
1021112102012010,
1021112101201120,
1011212101211120,
3333,
100010001000100010001000100000000000300000100100,
2011021120112011,
2000001110000010,
5,
000000000000000000000008000000000000000000000000,
#END
COURSE:Hard
LEVEL:2
SCOREINIT:1000
SCOREDIFF:280
#START
100000000000100000100100100000000000000000000000,
100000000000100000100100100000000000000000000000,
100000000100000000100000000000000000200000000000,
200000000000000000100100100000000000000000000000,
100000000000100000100100100000000000000000000000,
100000000000100000100100100000000000000000000000,
100000000100000000100000000000000000200000000000,
200000000000000000100100100000000000000000100000,
500000000000000000000000000000000000000000000800,
000000000000000000000000000000000000000000000000,
100000000100000000100000000000000000000000100000,
100000000100000000100000000000000000000000100000,
100000000000100000000000100000000000100000000000,
100000000000000000000000000000000000000000000000,
100000100100000100100000000000000000000000000000,
100000100100000100100000000000000000000000000000,
100000100100000100100000000000000000200000000000,
100000000100000000100000000000000000000000000000,
100000000100000100200000000000000000000000000000,
100000000100000100200000000000000000000000100000,
100000000000100000000000100000000000100000000000,
300000000300000000300000000000000000000000000000,
100000100100000100100000000000000000200000000000,
100000000000100000000000100000000000100000000000,
500000000000000000000000000800000000000000100000,
100000000000000000100000100000000000000000000000,
200000000000200000000000400000000000400000000000,
100000100100000100100000000000000000200000000000,
100000100100000100100000000000000000200000000000,
100000000100000000100000200000000200000000200000,
100000000100000000100000100000000000000000000000,
100000000100000000100000000000000000100000000000,
100000100100000100100000000000000000000000000000,
100000000100000000100000200000000200000000200000,
100000000100000000100000100000000000000000000000,
100000100100000100100000000000000000200000000000,
100000100100000100100000000000000000200000000000,
100000000100000000100000200000000200000000200000,
100000000100000000100000100000000000000000000000,
300000000000300000000000300000000000200000000000,
300000000000300000000000300000000000000000000000,
100000100100000100100000000000000000100000000000,
100000000000000000100100100000000000000000100000,
500000000000000000000000000000000000000000000000,
000000000000000000000000000800000000000000000000,
#END
COURSE:Normal
LEVEL:2
SCOREINIT:1250
SCOREDIFF:410
#START
100000000000100000000000100000000000000000000000,
100000000000100000000000100000000000000000000000,
100000000100000000100000000000000000200000000000,
200000000000000000000000300000000000000000000000,
100000000000100000000000100000000000000000000000,
100000000000100000000000100000000000000000000000,
100000000100000000100000000000000000200000000000,
200000000000000000000000300000000000000000000000,
500000000000000000000000000000000000000000000800,
000000000000000000000000000000000000000000000000,
100000000100000000100000000000000000000000000000,
100000000100000000100000000000000000000000000000,
100000000000100000000000100000000000000000000000,
100000000000000000000000000000000000000000000000,
100000000100000000100000000000000000000000000000,
100000000100000000100000000000000000000000000000,
100000000100000000100000000000000000200000000000,
100000000100000000100000000000000000000000100000,
100000000100000000100000000000000000000000100000,
100000000100000000100000000000000000000000100000,
100000000000100000000000100000000000000000000000,
100000000100000000100000000000000000000000100000,
100000000100000000100000000000000000200000000000,
100000000000100000000000100000000000000000000000,
500000000000000000000000000800000000000000000000,
100000000000000000100000100000000000000000000000,
200000000000200000000000400000000000000000000000,
100000000100000000100000000000000000200000000000,
100000000100000000100000000000000000200000000000,
100000000100000000100000000000000000200000000000,
100000000100000000100000000000000000000000000000,
100000000100000000100000000000000000200000000000,
100000000100000000100000000000000000000000000000,
100000000100000000100000000000000000100000000000,
100000000000000000000000300000000000000000000000,
100000000100000000100000000000000000200000200000,
100000000100000000100000000000000000200000200000,
100000000100000000100000000000200000200000000000,
100000000100000000100000000000000000000000000000,
300000000000300000000000300000000000000000000000,
300000000000300000000000300000000000000000100000,
100000000100000000100000000000000000100000000000,
100000000000000000100000100000000000000000000000,
500000000000000000000000000000000000000000000000,
000000000000000000000800000000000000000000000000,
#END
COURSE:Easy
LEVEL:2
SCOREINIT:1390
SCOREDIFF:620
#START
100000000000100000000000100000000000000000000000,
100000000000100000000000100000000000000000000000,
100000000000000000100000000000000000000000000000,
100000000000000000000000300000000000000000000000,
100000000000100000000000100000000000000000000000,
100000000000100000000000100000000000000000000000,
100000000000000000100000000000000000000000000000,
200000000000000000000000300000000000000000000000,
500000000000000000000000000000000000000000800000,
000000000000000000000000000000000000000000000000,
100000000000000000100000000000000000000000000000,
100000000000000000100000000000000000000000000000,
100000000000100000000000100000000000100000000000,
100000000000000000000000000000000000000000000000,
100000000000000000100000000000000000000000000000,
100000000000000000100000000000000000000000000000,
100000000000000000100000000000000000000000000000,
100000000000000000100000000000000000000000000000,
100000000000000000100000000000000000000000000000,
100000000000000000100000000000000000000000000000,
100000000000100000000000100000000000100000000000,
100000000000000000100000000000000000000000000000,
100000000000000000100000000000000000000000000000,
100000000000100000000000100000000000100000000000,
500000000000000000000000800000000000000000000000,
100000000000000000000000100000000000000000000000,
200000000000200000000000200000000000000000000000,
100000000000000000100000000000000000000000000000,
100000000000000000100000000000000000000000000000,
100000000000000000100000000000000000000000000000,
100000000000000000100000000000000000000000000000,
100000000000000000100000000000000000100000000000,
100000000000000000100000000000000000100000000000,
100000000000000000100000000000000000100000000000,
100000000000000000000000300000000000000000000000,
100000000000000000100000000000000000000000000000,
100000000000000000100000000000000000000000000000,
100000000000000000100000000000000000200000000000,
100000000000000000100000000000000000000000000000,
100000000000100000000000300000000000000000000000,
100000000000100000000000300000000000000000000000,
100000000000000000100000000000000000200000000000,
100000000000000000000000100000000000000000000000,
500000000000000000000000000000000000000000000000,
000000000000000000800000000000000000000000000000,
#END