Files
ESE/02 Anime/HappyMaterial/Happy Material.tja
T

503 lines
11 KiB
Plaintext
Raw Blame History

This file contains ambiguous Unicode characters
This file contains Unicode characters that might be confused with other characters. If you think that this is intentional, you can safely ignore this warning. Use the Escape button to reveal them.
//TJADB Project
TITLE:Happy☆Material
TITLEJA:ハッピー★マテリアル
SUBTITLE:--Mahou Ryo Gakuen Girls’ Middle School 2-A/Mahou Sensei Negima!
SUBTITLEJA:魔法先生ネギま!
BPM:163
WAVE:Happy Material.ogg
OFFSET:-3.200
DEMOSTART:67.425
COURSE:Oni
LEVEL:8
BALLOON:10,10,10,10
SCOREINIT:520
SCOREDIFF:140
#START
,
1010201010201111,
2020202000111010,
1020102011011020,
#GOGOSTART
#BRANCHSTART p,50,80
#N
0010201012202010,
1020102011022020,
0020202022202010,
10220101,
22001122,
10010007,
00000080,
#GOGOEND
1000201011202000,
1000201011202000,
10210021,
01011210,
1000201022202000,
1000201000001111,
22022022,
02204000,
1001202000102000,
1001201000202000,
1001202000102010,
0010001011202000,
1001202000102000,
1001201002202000,
1001202000102010,
0010201201201020,
1001202000102000,
1001201002202000,
1001202000102010,
0010001011202000,
1001202000102000,
1001201012202000,
1001202000102010,
0010101201201020,
1022201010222010,
12121011,
12101210,
1212,
11201120,
10201220,
1414,
11122122,
1010201000111010,
#GOGOSTART
1020102011022020,
0010201012202010,
1020102011022020,
0010201012202010,
1020102011011020,
01020102,
10210201,
0010101201201020,
1020102011022020,
0010201012202010,
1020102011011020,
0020202012202010,
10220102,
22001010,
10010007,
00000080,
#GOGOEND
1022201000102010,
0022201000122010,
0010201000122010,
01010110,
1022201000102010,
0022201000001111,
22022022,
02204000,
#E
0010201012202010,
1020102011022020,
0020202022202010,
10220101,
22001122,
10010007,
00000080,
#GOGOEND
1000201011202000,
1010201011202000,
1000201022202000,
1000200012201220,
1010201102202000,
1010201100001111,
22022022,
02204000,
1000201102101000,
2020101102101000,
1000201101202020,
1010201101202000,
1000201102101000,
2020101102101000,
1000101201201000,
0010102202201020,
1020101102101000,
2020101102202000,
1010202012012000,
2220002212112000,
1020101102101000,
1020101202202000,
1000101102201020,
1000202202201020,
1011202010112020,
12121011,
2121,
1110122011201120,
12,
12121212,
1414,
1122201122201122,
1122204000111010,
#GOGOSTART
1020102011022020,
0010201012202010,
1020102011022020,
0010201012202010,
1020102011011020,
01020102,
10210201,
0010101201201020,
1020102011022020,
0010201012202010,
1020102011011020,
0020202012202010,
10220102,
22001010,
10010007,
00000080,
#GOGOEND
1022201000102010,
0022201000122010,
0010201000122010,
01010110,
1022201000102010,
0022201000001111,
22022022,
02204000,
#M
1102102012202000,
1010202011021020,
1102101011202000,
1020102011022010,
1120200011122000,
1022201022200011,
1020202011112220,
#GOGOEND
1000201011202000,
1010201011202000,
1000201022202000,
1000200012201220,
1010201102202000,
1010201100001111,
22022022,
02204000,
1000201102101000,
2020101102101000,
1000201101202020,
1010201101202000,
1000201102101000,
2020101102101000,
1000101201201000,
0010102202201020,
1020101102101000,
2020101102202000,
1010202012012000,
2220002212112000,
1020101102102000,
1020101202202000,
1000101102201020,
1000202202201020,
1011202010112020,
12121011,
2121,
1110122011201120,
12,
12121212,
1414,
1122201122201122,
1122204000111010,
#GOGOSTART
1020102011021020,
1102102012202011,
1010102011021020,
1102202012202010,
1020102011022020,
1102202011022022,
10220202,
0020201102201020,
1020102011021020,
1102102012202011,
1010202011012020,
0020201012202010,
1020201011022020,
2210000010001000,
2220100022201000,
1020201202202020,
#GOGOEND
1000202011222020,
0020202011222000,
1000201011222020,
0020002202202000,
1000202011122000,
1000202011222000,
22022022,
02204000,
#BRANCHEND
#END
COURSE:Hard
LEVEL:6
BALLOON:8,8
SCOREINIT:740
SCOREDIFF:210
#START
,
11211211,
22220111,
#GOGOSTART
10101011,
01102001,
10101011,
02220001,
10110101,
11001010,
10010007,
00000080,
10210121,
0000201000112010,
01210121,
01010100,
1000201000112010,
0000201000001111,
22022022,
02204000,
10120120,
10210000,
10120120,
10210120,
10120120,
10210000,
10120120,
102020110220102,
10120120,
1000201011202000,
10120120,
1000201011102000,
10120120,
1000201011202000,
10120120,
1020201102201020,
10011001,
20102011,
1212,
10011000,
1212,
1020122,
1414,
10120120,
11210111,
#GOGOSTART
10201012,
0010202022202000,
10201021,
0010102022202000,
10201021,
01020102,
10210201,
0010101102201020,
10201012,
0010200012202000,
10201022,
0020202012202000,
10220102,
22001010,
10010007,
00000080,
#GOGOEND
10120120,
10220000,
10202222,
02020200,
10120120,
1000202000001111,
22022022,
02204000,
#END
COURSE:Normal
LEVEL:6
BALLOON:7
SCOREINIT:890
SCOREDIFF:290
#START
000000000000000000000000000000000000000000000000,
100000000000200000100000000000200000100000000000,
200000200000200000200000000000000000000000000000,
#GOGOSTART
100000000000100000000000100000000000100000000000,
000000100000100000000000200000000000000000000000,
100000000000100000000000100000000000100000100000,
000000200000200000200000000000000000000000000000,
100000000000100000100000000000100000000000100000,
100000000000000000000000200000000000200000000000,
100000000000000000100000000000000000000000500000,
000000000000000000000000000000000000000008000000,
#GOGOEND
000000000000000000000000000000000000000000000000,
100000000000000000000000000000000000000000000000,
100000000000000000000000000000100000100000100000,
000000100000000000100000000000100000000000000000,
100000000000000000200000000000000000000000000000,
100000000000200000200000000000000000000000000000,
200000200000000000200000200000000000200000200000,
000000200000200000000000400000000000000000000000,
100000000000100000100000000000200000000000100000,
000000200000200000200000000000000000000000000000,
100000000000100000100000000000200000000000100000,
000000200000000000100000000000200000000000000000,
100000000000100000100000000000200000000000100000,
000000200000200000200000000000000000000000000000,
100000000000100000100000000000200000000000100000,
000000200000000000000000000000000000000000000000,
100000000000100000100000000000200000000000100000,
000000200000200000200000000000000000000000000000,
100000000000100000100000000000200000000000100000,
000000200000000000100000000000200000000000000000,
100000000000100000100000000000200000000000100000,
000000200000200000200000000000000000000000000000,
100000000000100000100000000000200000000000100000,
000000200000000000000000000000100000100000200000,
200000000000000000100000100000000000000000100000,
200000000000100000000000200000000000100000100000,
100000000000200000000000100000000000200000000000,
100000000000000000100000100000000000000000000000,
100000000000000000000000100000000000000000000000,
100000000000100000000000100000000000000000000000,
100000000000000000000000100000000000000000000000,
100000000000000000700000000000000000000000000000,
000000800000000000000000000000100000100000000000,
#GOGOSTART
100000000000200000000000200000000000100000100000,
000000200000200000000000100000000000000000000000,
100000000000200000000000200000000000100000100000,
000000200000200000000000100000000000000000000000,
100000000000200000000000200000000000100000100000,
000000200000000000200000000000200000000000100000,
100000000000200000200000000000100000000000200000,
000000000000000000000000000000100000100000000000,
100000000000200000000000200000000000100000100000,
000000200000200000000000100000000000000000000000,
100000000000200000000000200000000000200000200000,
000000200000200000200000000000000000000000000000,
100000000000200000200000000000100000000000000000,
200000200000000000000000100000000000100000000000,
100000000000000000100000000000000000000000500000,
000000000000000000000000000000000000000008000000,
#GOGOEND
000000000000000000000000000000000000000000000000,
100000000000000000000000000000000000000000000000,
100000000000000000000000100000100000100000100000,
000000100000000000100000000000100000000000000000,
100000000000000000200000000000000000000000000000,
100000000000200000200000000000000000000000000000,
200000200000000000200000200000000000200000200000,
000000200000200000000000400000000000000000000000,
#END
COURSE:Easy
LEVEL:4
BALLOON:9
SCOREINIT:690
SCOREDIFF:260
#START
000000000000000000000000000000000000000000000000,
000000000000000000000000000000000000000000000000,
000000000000000000000000000000000000000000000000,
#GOGOSTART
100000000000100000000000100000000000200000000000,
000000000000200000000000200000000000000000000000,
100000000000100000000000100000000000200000000000,
000000200000200000200000000000000000000000000000,
100000000000100000100000000000000000000000000000,
100000000000000000000000100000000000100000000000,
200000000000000000200000000000000000000000500000,
000000000000000000000000000000000000000008000000,
#GOGOEND
000000000000000000000000000000000000000000000000,
100000000000000000000000000000000000000000000000,
100000000000000000000000000000000000000000000000,
000000100000000000100000000000100000000000000000,
100000000000000000100000000000000000000000000000,
100000000000000000100000000000000000000000000000,
200000000000000000200000000000000000200000000000,
000000200000000000000000400000000000000000000000,
100000000000100000100000000000000000000000000000,
100000000000100000100000000000000000000000000000,
200000000000200000200000000000000000000000100000,
000000100000000000200000000000200000000000000000,
100000000000100000100000000000000000000000000000,
100000000000100000100000000000000000000000000000,
200000000000200000200000000000000000000000200000,
000000200000000000000000000000000000000000000000,
100000000000100000100000000000000000000000000000,
100000000000100000100000000000000000000000000000,
200000000000200000200000000000000000000000100000,
000000100000000000200000000000200000000000000000,
100000000000100000100000000000000000000000000000,
100000000000100000100000000000000000000000000000,
200000000000200000200000000000000000000000200000,
000000200000000000000000000000000000000000000000,
100000000000000000100000100000000000000000000000,
100000000000200000000000100000000000000000000000,
100000000000200000000000100000000000200000000000,
100000000000000000100000100000000000000000000000,
100000000000000000000000100000000000000000000000,
200000000000200000000000200000000000200000000000,
100000000000000000000000000000000000000000000000,
100000000000000000700000000000000000000000000000,
000000000000000000000000000000800000000000000000,
#GOGOSTART
100000000000100000000000100000000000200000000000,
000000000000200000000000200000000000000000000000,
100000000000100000000000100000000000200000000000,
000000000000200000000000200000000000000000000000,
100000000000100000000000200000000000000000000000,
000000200000000000200000000000200000000000000000,
100000000000000000000000000000100000000000100000,
000000000000000000000000000000000000000000000000,
100000000000100000000000100000000000200000000000,
000000000000200000000000200000000000000000000000,
100000000000100000000000200000000000200000000000,
000000200000200000200000000000000000000000000000,
100000000000100000000000000000100000000000100000,
100000000000000000000000100000000000100000000000,
200000000000000000200000000000000000000000500000,
000000000000000000000000000000000000000008000000,
#GOGOEND
000000000000000000000000000000000000000000000000,
100000000000000000000000000000000000000000000000,
100000000000000000000000000000000000000000000000,
000000100000000000100000000000100000000000000000,
100000000000000000100000000000000000000000000000,
100000000000000000100000000000000000000000000000,
200000000000000000200000000000000000200000000000,
000000200000000000000000400000000000000000000000,
#END