- Changed a lot, if not all of the missing watermark stuff so that tja_validator.py can be happy once again. Still a lot of work to do though. (Yes, even spaces count.) - Changed "Senro wa Tsuduku Yodoko Mademo" to "I've Been Working On The Railroad" (approved as valid localization string for ESE)
210 lines
2.4 KiB
Plaintext
210 lines
2.4 KiB
Plaintext
//TJADB Project
|
|
TITLE:MOIL
|
|
TITLEJA:MOIL
|
|
SUBTITLE:--Keina Suda/Ni no Kuni
|
|
SUBTITLEJA:須田景凪 映画「二ノ国」より
|
|
BPM:100
|
|
WAVE:MOIL.ogg
|
|
OFFSET:-2.513
|
|
DEMOSTART:52.888
|
|
|
|
COURSE:Oni
|
|
LEVEL:7
|
|
BALLOON:12,12,12
|
|
SCOREINIT:1460
|
|
SCOREDIFF:478
|
|
|
|
|
|
#START
|
|
|
|
|
|
100101002200100101002200,
|
|
12121011,
|
|
11211020,
|
|
100200100200102100202102,
|
|
200202001101201101000100,
|
|
12121011,
|
|
11211121,
|
|
70000082,
|
|
22011101,
|
|
200201100102200101100202,
|
|
20012111,
|
|
500000000000000000000000000008000000000000100010,//12
|
|
|
|
#GOGOSTART
|
|
100100100202200200200202,
|
|
100202100202100200200001,
|
|
200001200001200100100100,
|
|
500000000000000000000000000008000000000000200020,
|
|
100100100101200200200202,
|
|
100202100202100200200001,
|
|
200001200001200100100100,
|
|
500000000000000000000000000000000000000008000000,//20
|
|
|
|
#GOGOEND
|
|
0002,//21
|
|
|
|
#GOGOSTART
|
|
300000200001100100200000,
|
|
400000100002200200100000,
|
|
100000200001100100200200,
|
|
7008,
|
|
300000200001100100200000,
|
|
400000100002200200100000,
|
|
100000200001100100200200,
|
|
7008,//29
|
|
|
|
#GOGOEND
|
|
22202220,
|
|
2220,
|
|
22202220,
|
|
20202220,
|
|
|
|
|
|
#END
|
|
|
|
|
|
COURSE:Hard
|
|
LEVEL:3
|
|
BALLOON:8,10,10
|
|
SCOREINIT:1630
|
|
SCOREDIFF:460
|
|
|
|
#START
|
|
11,
|
|
12121000,
|
|
1112,
|
|
12121000,
|
|
22,
|
|
12121000,
|
|
10101111,
|
|
7008,
|
|
21,
|
|
2121,
|
|
10011111,
|
|
500000000000000000000000000008000000000000000000,//12
|
|
|
|
#GOGOSTART
|
|
11102220,
|
|
10111220,
|
|
1212,
|
|
500000000000000000000000000008000000000000000000,
|
|
11102220,
|
|
10111220,
|
|
1212,
|
|
500000000000000000000000000000000000000008000000,//20
|
|
|
|
#GOGOEND
|
|
,//21
|
|
|
|
#GOGOSTART
|
|
30201110,
|
|
40102220,
|
|
10102222,
|
|
7008,
|
|
30201110,
|
|
40102220,
|
|
10102222,
|
|
7008,//29
|
|
|
|
#GOGOEND
|
|
22202220,
|
|
2220,
|
|
20202220,
|
|
20202220,
|
|
#END
|
|
|
|
COURSE:Normal
|
|
LEVEL:2
|
|
BALLOON:8
|
|
|
|
#START
|
|
11,
|
|
1110,
|
|
11,
|
|
12,
|
|
11,
|
|
1110,
|
|
11,
|
|
7008,
|
|
22,
|
|
2222,
|
|
2011,
|
|
500000000000000000000000000008000000000000000000,//12
|
|
|
|
#GOGOSTART
|
|
1111,
|
|
11,
|
|
1011,
|
|
500000000000000000000000000008000000000000000000,
|
|
1111,
|
|
11,
|
|
1011,
|
|
500000000000000000000000000000000000000008000000,//20
|
|
|
|
#GOGOEND
|
|
,//21
|
|
|
|
#GOGOSTART
|
|
3011,
|
|
4022,
|
|
11,
|
|
1,
|
|
31,
|
|
42,
|
|
11,
|
|
1,//29
|
|
|
|
#GOGOEND
|
|
22,
|
|
2220,
|
|
22,
|
|
2220,
|
|
#END
|
|
|
|
COURSE:Easy
|
|
LEVEL:2
|
|
|
|
#START
|
|
11,
|
|
1,
|
|
11,
|
|
1,
|
|
11,
|
|
1,
|
|
11,
|
|
1,
|
|
12,
|
|
12,
|
|
11,
|
|
500000000000000000000000000008000000000000000000,//12
|
|
|
|
#GOGOSTART
|
|
11,
|
|
1,
|
|
11,
|
|
500000000000000000000000000008000000000000000000,
|
|
11,
|
|
1,
|
|
11,
|
|
500000000000000000000000000000000000000008000000,//20
|
|
|
|
#GOGOEND
|
|
,//21
|
|
|
|
#GOGOSTART
|
|
31,
|
|
42,
|
|
11,
|
|
1,
|
|
31,
|
|
42,
|
|
11,
|
|
1,//29
|
|
|
|
#GOGOEND
|
|
22,
|
|
2,
|
|
22,
|
|
2,
|
|
#END |