Files
ESE/02 Anime/THE DAY/THE DAY.tja
T
2025-05-11 22:32:41 -04:00

441 lines
4.7 KiB
Plaintext

//TJADB Project
TITLE:THE DAY
TITLEJA:THE DAY
SUBTITLE:--Porno Graffitti/Boku no Hero Academia
SUBTITLEJA:「僕のヒーローアカデミア」より
BPM:186
WAVE:THE DAY.ogg
OFFSET:-0.938
DEMOSTART:62.821
COURSE:Oni
LEVEL:8
BALLOON:14,7
SCOREINIT:640,1970
SCOREDIFF:170
#START
#BARLINEOFF
#MEASURE 1/8
011,
#BARLINEON
#MEASURE 4/4
20221202,
02010020, //3
10210120,
11210120,
10210120,
11210201,
10221022,
10221122,
10212022,
3304,
1110201110201110,
2011102010004000, //13
#GOGOSTART
1110200010221010,
0010200011202000,
1110200010221070,
0008,
1110200010221010,
0010200011202000,
1110201110201070,
00008402, //21
#GOGOEND
11012022,
11000002,
11012022,
11012102,
11012022,
11020221,
12030000,
1020102000112020, //29
1010201000102022,
11000002,
1010202210201022,
11201202,
1010202210201022,
1010002000202210,
12030000,
1110201000200000, //37
12010121,
0010001020102011,
12010121,
01012120,
12010121,
0010001020102011,
1010201000102011,
1010202210200000,
1110202110200030,
0010201120002220,
1110201110201110,
2011102010002022, //49
#GOGOSTART
1010201120102220,
1111201110200000,
1110201120102222,
1011201110200010,
1000202210201120,
1022101022101020,
1022102011221020,
3000300210102022, //57
1010201120102220,
1122102210200000,
1110201120102222,
1011202210200010,
1000202210201120,
1022101022101020,
1022102011211020,
3000300011112010, //65
5,
000000000000000000000000000000000008000000000000,
#GOGOEND
1111201111201111,
2010201120003030,
0,
0,
0,
0, //73
#END
COURSE:Hard
LEVEL:6
BALLOON:9,6,6,6,10
SCOREINIT:780,3030
SCOREDIFF:215
#START
#BARLINEOFF
#MEASURE 1/8
0,
#BARLINEON
#MEASURE 4/4
30000002,
02010020, //3
10210120,
10210120,
10210120,
10210200,
10221022,
10221122,
10112022,
30300040,
6,
000000000000000000000000000000000008000000000000, //13
#GOGOSTART
1000200011102010,
01201020,
1000200011102070,
0008,
1000200011102010,
01201020,
1000201110200070,
00008400, //21
#GOGOEND
11000020,
11000000,
11000020,
11000000,
11000020,
11020021,
100000200000000000700000000000000000000000000008,
0, //29
11210120,
11000000,
11210120,
11201200,
11210120,
11020021,
100000200000000000700000000000000000000000000008,
0, //37
12010020,
00012020,
12010121,
01012020,
12010121,
01012020,
10210101,
21012100,
900000000000000000000000000000000009000000000008,
0,
30430430,
43043000, //49
#GOGOSTART
11210120,
1110201000200000,
11210120,
1110201000200010,
10221022,
10221122,
10112022,
3300, //57
1110201000102000,
1110201110200000,
1110201000102000,
1110201110200010,
10221022,
10221122,
10112022,
3304, //65
6,
000000000000000000000000000000000008000000000000,
#GOGOEND
1110201110201110,
20102033,
0,
0,
0,
0, //73
#END
COURSE:Normal
LEVEL:4
BALLOON:7,5,5,5,8
SCOREINIT:870,4930
SCOREDIFF:285
#START
#BARLINEOFF
#MEASURE 1/8
0,
#BARLINEON
#MEASURE 4/4
3,
0, //3
1200,
1200,
1200,
1200,
11,
1110,
1120,
3304,
6,
000000000000000000000000000000000008000000000000, //13
#GOGOSTART
1102,
1102,
10100207,
0008,
1102,
1102,
10100207,
08, //21
#GOGOEND
11000020,
11000000,
11000020,
11000000,
11000020,
11000020,
100000100000000000700000000000000000000000000008,
0, //29
1111,
11000000,
1111,
20202200,
1111,
11010010,
200000200000000000700000000000000000000000000008,
0, //37
3002,
0022,
3002,
0012,
3002,
0022,
10110200,
10002200,
900000000000000000000000000000000009000000000008,
0,
30030030,
03003000, //49
#GOGOSTART
1212,
11010200,
1212,
11010200,
1110,
1120,
1122,
3300, //57
1212,
11010200,
1212,
11010200,
1110,
1120,
1122,
3304, //65
6,
000000000000000000000000000000000008000000000000,
#GOGOEND
30030030,
30303044,
0,
0,
0,
0, //73
#END
COURSE:Easy
LEVEL:2
BALLOON:4,3,3,3,5
SCOREINIT:740,7220
SCOREDIFF:320
#START
#BARLINEOFF
#MEASURE 1/8
#SCROLL 0.85
0,
#BARLINEON
#MEASURE 4/4
3,
0, //3
1,
2,
1,
2,
1,
11,
1,
3300,
6,
000000000000000000000000000008000000000000000000, //13
#GOGOSTART
1100,
1100,
10100007,
0008,
2200,
2200,
20200007,
08, //21
#GOGOEND
1,
2,
1,
22,
1,
2,
100000000000000000700000000000000000000000000008,
0, //29
1111,
1,
2222,
2,
1111,
1,
100000000000000000700000000000000000000000000008,
0, //37
3002,
0,
3002,
0,
3002,
0,
3,
33,
900000000000000000000000000000000009000000000008,
0,
30030030,
03003000, //49
#GOGOSTART
11,
1110,
11,
1110,
12,
1111,
12,
3300, //57
11,
1110,
11,
1110,
12,
1111,
12,
3300, //65
6,
000000000000000000000000000008000000000000000000,
#GOGOEND
30030030,
3333,
0,
0,
0,
0, //73
#END