Files
ESE/02 Anime/THE REVO/THE REVO.tja
T
Thonker2 d841ae9981 NS2 Updates and some more Fixes
01 Pop
Hololive Ondo (Adjusted Track timing, Fixed Oni 1)

02 Anime
THE REVO
Kasabuta (Added New Audio/Chart, Fixed Old Audio/Chart Oni 28, Hard 4,23,51, Balloon Count (Hard))

03 Vocaloid
Irodoru♡Future (Fixed Drumroll/Balloon Lengths)

09 Namco Original
Waruruu-sama no Uta o Kike! (Updated LEVEL(Oni,Hard))
2026-03-21 17:10:44 +08:00

335 lines
3.6 KiB
Plaintext
Executable File

//TJADB Project
TITLE:THE REVO
TITLEJA:THE REVO
SUBTITLE:--My Hero Academia FINAL SEASON
SUBTITLEJA:「僕のヒーローアカデミア FINAL SEASON」より
BPM:152
WAVE:THE REVO.ogg
OFFSET:-1.580
DEMOSTART:38.267
//SONG_ID:threvo
//Shinuchi: 13830/6020/3930/2670
COURSE:Oni
LEVEL:7
BALLOON:10,16,12,14
SCOREINIT:820,2830
SCOREDIFF:220
#START
20022002,
20022022,
20022002,
20000222,
20022002,
20022002,
2000002020020020,
11110122,
10211021,
1000201011102010,
10211021,
10202122, //12
10211021,
10211021,
1110201070000000,
000008000000200000000000200000100000100000200000,
1001201020101020,
1001201020102220,
1010222010102220,
1000200010202220,
1001201010002011,
11210121,
700000000000000000000000000000000000000000000008,
0000102010111010, //24
#GOGOSTART
3011202000112022,
1011202010002000,
1011202010112022,
1011202010002000,
1011202000112022,
2011202000102020,
1110222011202000,
700000000000000000000000000000000008000000000000,
3011202000112022,
1011202010002000,
1011202010112022,
1010222020002000,
1011202000112022,
2011202000102020,
1110222011202000,
70000008, //40
3010201110102000,
1120201110102000,
3010201110102000,
1120201110102000,
3010201110102000,
1120201110102000,
600000000000000000000000000000000000000008000000,
1120112010222020,
1010201120102000,
1120201110102000,
6,
000000000000000008000000300000300000400000300000,
#GOGOEND
0,
0,
0,
0, //56
#END
COURSE:Hard
LEVEL:5
BALLOON:8,13,10,11
SCOREINIT:910,4230
SCOREDIFF:263
#START
20022002,
20002022,
20022002,
2002,
20022002,
20022002,
2000000020020020,
10000220,
10011001,
10011022,
10011001,
10202110, //12
10011001,
10011001,
10017000,
000008000000000000000000000000200000200000000000,
1001001000202000,
1001001000102020,
01220122,
0022,
1001001010000020,
11020201,
700000000000000000000000000000000000000000000008,
0122, //24
#GOGOSTART
31220112,
02112020,
11220112,
02112020,
11220112,
02110220,
11212020,
700000000000000000000000000000000008000000000000,
31220112,
02112020,
11221121,
02112020,
11220112,
02110220,
11212020,
70000008, //40
30211120,
11210120,
30211120,
11210120,
30211120,
11210120,
600000000000000000000000000000000000000008000000,
11111020,
11212120,
11210120,
6,
000000000000000008000000300000300000300000300000,
#GOGOEND
0,
0,
0,
0, //56
#END
COURSE:Normal
LEVEL:5
BALLOON:6,9,7,8
SCOREINIT:1100,6540
SCOREDIFF:400
#START
22,
2,
22,
2,
22,
2,
22,
1,
10011001,
10022000,
10011001,
1, //12
10011001,
10022000,
17,
000008000000000000000000000000100000100000000000,
10000110,
10000111,
00110011,
0022,
10011001,
01010000,
700000000000000000000000000000000000000000000008,
0111, //24
#GOGOSTART
30110111,
01110000,
10111011,
01110000,
10110101,
01110110,
10111020,
700000000000000000000000000000000008000000000000,
30110111,
01110000,
10111011,
01110000,
10110111,
01110020,
10111020,
70000008, //40
32,
10110010,
32,
10110010,
32,
10110010,
600000000000000000000000000000000000000008000000,
1110,
12,
10110010,
6,
000000000000000008000000300000000000300000300000,
#GOGOEND
0,
0,
0,
0, //56
#END
COURSE:Easy
LEVEL:3
BALLOON:4,7,4,4
SCOREINIT:1440,15820
SCOREDIFF:1180
#START
2,
2,
2,
0,
2,
2,
2,
1,
11,
1,
11,
1, //12
11,
1,
17,
000008000000000000000000000000000000000000000000,
1,
1001,
0101,
0,
10000001,
0,
700000000000000000000000000000000000000000000008,
01, //24
#GOGOSTART
30100001,
0,
10100001,
0,
10100001,
0,
12,
700000000000000000000000000008000000000000000000,
30100001,
0,
10100001,
0,
10100001,
0,
12,
700000000000000000000000000008000000000000000000, //40
3,
10010000,
3,
10010000,
3,
10010000,
600000000000000000000000000008000000000000000000,
11,
1,
10010000,
6,
000008000000000000000000300000000000300000000000,
#GOGOEND
0,
0,
0,
0, //56
#END