Files
ESE/08 Live Festival Mode/02 Amami Harukas Its A Live A Live/Amami Harukas Its A Live A Live.tja
T

321 lines
9.7 KiB
Plaintext
Raw Blame History

This file contains ambiguous Unicode characters
This file contains Unicode characters that might be confused with other characters. If you think that this is intentional, you can safely ignore this warning. Use the Escape button to reveal them.
//TJADB Project
TITLE:Amami Haruka’s It’s A Live, A Live!
SUBTITLE:--Otome yo Taishi o Idake‼ & I Want & Watashi wa Idol♥
BPM:148
WAVE:Otome yo Taishi o Idake.ogg
DEMOSTART:81.364
COURSE:Dan
LEVEL:8
BALLOON:8,10,10,3,3,3,3,3,3,4
#START
#NEXTSONG Otome yo Taishi o Idake‼,Yusuke Shirato feat. Eriko Nakamura/THE iDOLM@STER SHINY FESTA: Honey Sound,ゲームミュージック,Otome yo Taishi o Idake!!.ogg,590,158
#DELAY 1.907
100100200200200200100100200200100100200200100100,
100000100000200000100000000000100000200000100000,
000000100000200000100000300000000000300000000000,
100000100000200000100000000000100000200000100000,
000000100000200000100000300000000000300000000000,
100000200200200000100000200200200000100000200200,
200000100000200200200000100000000000500000000000,
000000000000000000000000000000000008000000000000,
#GOGOSTART
300000000300000000300000000000000000000000000000,
100000100000200000100000000000100000200000100000,
100100100000200000100100100000400000400000100000,
100000200000200000000000100000100000200000100000,
100100100000200200200000100100100000200200200000,
100000100000200000100000000000100000200000100000,
100100100000200000100100100000400000400000100000,
100000200000200000000000100000200000200000100000,
100000000000200000100100100000200000200000200200,
100000200000100000200000100100100000200200200000,
300000300000300000300000300000000000400000000000,
#GOGOEND
000000000000000000000000000000000000000000000000,
000000000000000000000000300000000000300000000000,
000000000000000000000000000000000000000000000000,
000000000000700000000000000000000000800000000000,
100000000000200000100000100000000000200000100000,
100000100000200000000000100000000000000000000000,
100000000000200000100000100000000000200000100000,
100000100000200000000000100000000000000000000000,
100000000000200000100000200000000000200000000000,
100000000000200000100000100000000000000000100000,
100100100000100000100000100000000000000000200000,
200000200200200000200000200000000000000000000000,
100000000000200000100000100000000000200000100000,
100000100000200200200200100000000000000000000000,
100000000000200000100000100000000000200000100000,
100000200000100100100100200000000000200200200200,
100000000000200000100000200000000000200000100000,
100000000000200000100000200000000000200000100000,
200200200000200000100000200000000000200000100000,
200000100100100000100000100000000000000000000000,
100000000000100000000000100000000000100000100000,
000000100000100000000000100000000000200000200000,
200200200000200200200000200200200000200200200000,
200200200200200000200000200000000000000000000000,
100100100000100100100000100100100000100100100000,
100100100100100000100000100000000000000000000000,
100000100000200000100100100000100000200000100000,
200200200000200000100100100000100000200000100000,
500000000000000000000000000000000008000000000000,
#GOGOSTART
300000000300000000300000000000000000000000000000,
100000100000200000100000000000100000200000100000,
100100100000200000100100100000400000400000100000,
100000200000200000200200100000000000200000100000,
100100100000200200200000100100100000200200200000,
100000100000200000100000000000100000200000100000,
100100100000200000100100100000400000400000100000,
100000200000200000200200100000200000200000100000,
200200200000200000100000100000000000300000000000,
100000100000200000100000000000100000200000100000,
100100100000200000100100100000400000400000100000,
100000200000200000200200100000000000200000100000,
100100100000200200200000100100100000200200200000,
100000100000200000100000000000100000200000100000,
100100100000200000100100100000400000400000100000,
100000200000200000200200100000200000200000100000,
100200200200200000100000100000200000200000200200,
100000200000100000200000100100100000200200200000,
300000300000300000300000300000000000400000000000,
#GOGOEND
#NEXTSONG I Want,Linda AI-CUE feat. Eriko Nakamura/THE iDOLM@STER SP,ゲームミュージック,I Want -Amami Haruka Version-.ogg,440,113
#DELAY 1.467
#BPMCHANGE 178
000
#GOGOSTART
3,
1000200110102010,
0010201110102010,
1000200110102010,
0010201011102220,
33330333,
0030303011101110,
#GOGOEND
32010120,
1020001010202011,
12010120,
12011220,
#GOGOSTART
1000200110102010,
0010201110102010,
1000200110102010,
0010201011102220,
#GOGOEND
32010120,
1020001010202011,
12010120,
12011220,
#GOGOSTART
1000200110102010,
0010201110102010,
1000200110102010,
0010201011102220,
#GOGOEND
1022102210221022,
1010202010201110,
1022102210221022,
1010202010201110,
1022102210201010,
0010201011102010,
2011101020111010,
100100100000100100100000500000000000000008000000,
#GOGOSTART
1000200110102010,
0010201110102010,
1000400110104010,
01414140,
1000200110102010,
0010201110102010,
1000400110104010,
#GOGOEND
01414140,
32010120,
1020001010202011,
12010120,
12011220,
#GOGOSTART
1000200110102010,
0010201110102010,
1000200110102010,
0010201011102220,
#GOGOEND
1010201011101020,
1010201110102011,
1010201110102010,
1010202210112010,
#GOGOSTART
1000200110102010,
0010201110102010,
1000200110102010,
0010201011102220,
#GOGOEND
1022102210221022,
1010202010201110,
1022102210221022,
1010202010201110,
1022102210221010,
0010201011102010,
1000201110201010,
500000000000000000000000000000000008000000000000,
30303034,
3333,
30303034,
3333,
30303034,
3333,
30303033,
01111111,
#GOGOSTART
3011103011101110,
1022202011222020,
1022201022111020,
1022202022111010,
1110202011102020,
1111202011112020,
33003303,
03033030,
#GOGOEND
11220121,
01211122,
1110202000112010,
0011201011202210,
1110202000112010,
0011201011102020,
1110202000112020,
0011201011221020,
#NEXTSONG Watashi wa Idol♥,Hiroto Sasaki feat. Eriko Nakamura/THE iDOLM@STER,ゲームミュージック,Watashi wa Idol -Haruka and Iori Version-.ogg,470,118
#DELAY 1.603
#BPMCHANGE 168
000000000000100000000000000000000000100000000000,
000000000000100000000000000000000000200000100000,
000000000000100000100000000000000000100000000000,
200000000000100000200000000000000000100000200000,
000000000000100000100000000000000000100000000000,
200000000000100000200000000000000000200000100000,
000000000000100000100000000000000000100000100000,
200000000000200000000000200000000000100100100100,
100000200000100000000000100000000100200000100000,
100000200000100000000000100000000200100000200000,
100000200000100000200000100000000100200000100000,
100000200000100000000000100000000200100000200100,
100000200000100000200000100000000100200000100000,
100000200000100000000000100000000200100000200000,
100000200000100000200000100000000100200000100000,
100000200000100000000000200000000200100100000100,
100000200000100000200000100000000100200000100000,
100000200000100000000000100000000200100000200000,
100000200000100000200000100000000100200000100000,
100000200000100000000000100000000100200000200100,
100000200000100000200000100000000100200000100000,
100000200000100000000000100000000200100000200000,
100000200000100000200000100000000100200000100000,
400000000000400000000000300000000000100000100100,
100000200000100000200000100000200200100000200000,
100000200000100000200000100000200000100100200000,
100000200000100000200000100000200200100000200000,
100000200000100000000000300000300000000000000000,
100000200200100000200000100100200000100000200000,
100000200200100000200000100100200000100000200000,
100000200200100000200000100100200000100000200000,
100000200200100000000000400000400000000000100100,
100000100000200000100100100000100000200000100100,
100000100000200000200200100000100000000000200000,
100100100000100100100000200200200000200200200000,
300000000000000000000000000000200000000000200000,
#GOGOSTART
100000000000100000000100200000100100200000100000,
000000200000200000100200200000200000100000200200,
100000200000100000000100200000100100200000100000,
000000200000200000100100200000200000100000200200,
100000200000100000000100200000100100200000100000,
000000200000200000200200200000100100200000200000,
100000200000100000200200100000000200100000200200,
100000000000000000000000000000200200200000200000,
100000000000100000000100200000100100200000100000,
000000200000200000100200200000200000100000200200,
100000200000100000000100200000100100200000100000,
000000200000200000100100200000200000100000200200,
100000200000100000000100200000100100200000100000,
000000200000200000200200100000100200000200100000,
100000200000100000200000100100200000200000100100,
200000100100200000100100200000100100200000000200,
100000200000100000000100200000100100200000500000,
000000000000000000000000000000000008000000000000,
100000200200100000200200100000200200100000100000,
400000000000000000000000400000400000000000300000,
#GOGOEND
98,
000000000000000000000000000000000000200000200000,
000000000000000000000000000000000000200000000000,
000000000000000000000000000000000000200000200000,
200200200000200000200000200200200000200000200000,
200200200000200200200200200000200200200200200200,
100100100100200200200200100100100100200200200200,
500000000000000000000008000000200200200000200000,
#GOGOSTART
100000000000100000000100200000100100200000100000,
100200200000200000100200200000200000100000200200,
100000200000100000000100200000100100200000100000,
100100200000200000100100200000200000100000200200,
100000200000100000000100200000100100200000100000,
100200200000200000200200200000200000100000200200,
100000200000100000200200100000000200100000200200,
100000100000200200200000100000200200200000100100,
100000000000100000000100200000100100200000100000,
100200200000200000100200200000200000100000200200,
100000200000100000000100200000100100200000100000,
100100200000200000100100200000200000100000200200,
100000200000100000000100200000100100200000100000,
100200200000200000200200100000100200000200100000,
100000200000100000200000100100200000200000100100,
200000100100200000100100200000100100200000100100,
100000200000100000000100200000100100200000500000,
000000000000000000000000000000000008000000000000,
100000200200100000200200100000200200100000100000,
400000000000000000000000400000400000000000300000,
#GOGOEND
#END