Files
ESE/02 Anime/Preserved Roses/Preserved Roses.tja
T
2025-05-26 17:41:56 -04:00

305 lines
3.2 KiB
Plaintext
Raw Blame History

This file contains ambiguous Unicode characters
This file contains Unicode characters that might be confused with other characters. If you think that this is intentional, you can safely ignore this warning. Use the Escape button to reveal them.
//TJADB Project
TITLE:Preserved Roses
SUBTITLE:--T.M.Revolution × Nana Mizuki/Valvrave the Liberator
SUBTITLEJA:T.M.Revolution×水樹奈々「革命機ヴァルヴレイヴ」より
BPM:167
WAVE:Preserved Roses.ogg
OFFSET:-1.603
DEMOSTART:59.694
COURSE:Oni
LEVEL:7
SCOREINIT:700
SCOREDIFF:193
#START
21111021,
11100000,
21111021,
,
1010,
1,
10001001,
0022,
1010,
1,
3,
0000000000004011,
10233023,
3333,
3030303011111111,
1022101022101022,
1010221010221020,
2011202011202011,
2020112020112000,
1010201010112010,
0010201000112010,
0020102000112010,
01211040,
1020102010221020,
0020102000221020,
0010201000221020,
02121040,
11211221,
11210220,
1020102010222010,
1020102010222000,
11211221,
1010201000202011,
1011201010222010,
0011201110200022,
1011201010222010,
0022102220200022,
1011201010222010,
0011201110200000,
21111021,
0034,
#GOGOSTART
3011201010222010,
2011201020004011,
1011201010222010,
0011202210202000,
1011201010222010,
2011201020004011,
1011201010222010,
000000100100200000100000500000000000000008000000,
1011201010221020,
2011201020004022,
1011201010221020,
0011202210202000,
1011201010221020,
2011201020004022,
1011201010202010,
600000000000000000000008000000400000400000400000,
3011201040040040,
40046000,
,
,
000000000000000000000000000000000000000000000008,
#GOGOEND
0,
#END
COURSE:Hard
LEVEL:6
BALLOON:8
SCOREINIT:790
SCOREDIFF:238
#START
21111021,
11100000,
21111021,
,
1010,
1,
10001001,
0022,
1010,
1,
3,
00000443,
3000400030030030,
3003,
700000000000000000000000000000000000000000000008,
,
10110220,
11022040,
20110220,
11022040,
11201021,
01210111,
0020202000111010,
01122000,
11201021,
01210111,
0020202000111010,
02211000,
1212,
10210220,
2121,
20112200,
1212,
10210221,
11100111,
02212201,
11100111,
0022202020200010,
11100111,
02212200,
21111021,
0034,
#GOGOSTART
3000201000102011,
1000200010002011,
10210121,
0011101110202000,
1000201000102011,
1000200010002011,
10210121,
000000200000200000200000500000000008000000000000,
3000201000202011,
1000200010002011,
10210121,
0022201110202000,
3000201000202011,
1000200010002011,
10201122,
500000000000000000000008000000400000400000300000,
3000400030030030,
30036000,
,
,
000000000000000000000000000000000000000000000008,
#GOGOEND
0,
#END
COURSE:Normal
LEVEL:6
BALLOON:6,18,5
SCOREINIT:1080
SCOREDIFF:360
#START
5,
00080000,
7,
8,
1010,
1110,
1010,
2220,
1010,
1110,
1010,
6080,
3030,
9,
,
8,
,
,
,
10101011,
01110111,
01110111,
01101000,
20202022,
02220222,
02220222,
02202000,
1112,
10220000,
1122,
10222200,
1112,
10220000,
10100111,
0220,
10100111,
0220,
10100111,
0220,
70000008,
0034,
#GOGOSTART
30110110,
2220,
10110201,
01102000,
10110110,
2220,
10110201,
01102000,
30110111,
1220,
10110201,
01102000,
30110111,
1220,
10201110,
5080,
3430,
40046000,
,
,
000000000000000000000000000000000000000000000008,
#GOGOEND
0,
#END
COURSE:Easy
LEVEL:3
BALLOON:5,15,5,15
SCOREINIT:790
SCOREDIFF:428
#START
5,
00080000,
7,
8,
3,
3,
3030,
3030,
3,
3,
3030,
6080,
3030,
9,
,
8,
,
,
,
1110,
1010,
1,
1120,
2220,
2020,
2,
2210,
1010,
2,
2020,
1,
1010,
2,
1101,
0110,
1102,
0220,
1101,
0110,
70000008,
0033,
#GOGOSTART
3010,
1110,
1010,
4440,
1010,
1110,
1110,
4440,
1120,
2210,
1120,
4440,
1120,
2210,
3030,
6080,
3330,
4090,
,
,
000000000000000000000000000000000000000000000008,
#GOGOEND
0,
#END