Files
ESE/02 Anime/Toki o Matou/Toki o Matou.tja
T
2023-06-15 19:05:10 -05:00

371 lines
3.5 KiB
Plaintext

//TJADB Project
TITLE:Toki o Matou
TITLEJA:時を待とう
SUBTITLE:--HardBirds/Yo-kai Watch Shadowside
SUBTITLEJA:「妖怪ウォッチ シャドウサイド」より
BPM:180
WAVE:Toki o Matou.ogg
OFFSET:-1.419
DEMOSTART:18.717
COURSE:Oni
LEVEL:6
BALLOON:12,12
SCOREINIT:680
SCOREDIFF:140
#START
3,
,
,
21121120,
3000101000222010,
2002002010010010,
1000101000222010,
2002002010111020,
1000101000222010,
2002002010010010,
1000101000222010,
2002002010101020,
3004,//13
#GOGOSTART
1000102010111020,
1000102010222000,
1000102010111020,
1000102010222000,
3030000020111000,
3306,
,
000000000000000000000008000000400000000000000000,
1010222010102220,
1010222010100020,
2010222010102220,
1010222010100000,
1022201010002020,
1022201010002020,
3000202030002220,
3000222030000060,
,
,
,
000000000000000000000008000000000000000000000000,//33
#GOGOEND
1110101010102220,
2020202011101010,
20020070,
0008,
1110101020002220,
2020101022201000,
20020070,
0008,
1010202011102000,
1000202011102000,
1010202011102000,
1000202011102000,
1110201010202000,
1110201010202000,
1110202011102020,
300000000000200000500000000000000008000000000000,
30012001,
30102210,
500000000000000000000000000000000000000000000008,
00221120,
3,
,//55
#GOGOSTART
1000102010111020,
1000102010222000,
1000102010111020,
1000102010222000,
3030000020111000,
3306,
,
000000000000000000000000000800000000000000000000,
1010222010102220,
1010222010100020,
2010222010102220,
1010222010100000,
1022201010002020,
1022201010002020,
3000202030002220,
3000222030006000,
,
,
,
000000000000000000000008000000000000000000000000,
#END
COURSE:Hard
LEVEL:3
BALLOON:6,35,8,8,6
SCOREINIT:810
SCOREDIFF:240
#START
3,
,
,
7008,
1,
12,
1,
12,
1,
12,
1,
12,
3,//13
#GOGOSTART
10011001,
1122,
10011022,
,
11001010,
2205,
,
000000000000000000000008000000000000000000000000,
10111011,
1120,
10111011,
1120,
10111020,
10111020,
33,
40004009,
,
,
0900,
8,//33
#GOGOEND
11101022,
20201110,
20020070,
0008,
11101022,
20201110,
20020070,
0008,
11102011,
1120,
11102011,
1120,
11102000,
11102000,
11102220,
7008,
32,
32,
500000000000000000000000000000000000000000000008,
,
3,
,//55
#GOGOSTART
10011001,
1122,
10011022,
,
11001010,
2205,
,
000000000000000000000000000800000000000000000000,
10111011,
1120,
10111011,
1120,
10111020,
10111040,
3434,
3046,
,
,
,
000000000000000000000008000000000000000000000000,
#END
COURSE:Normal
LEVEL:2
BALLOON:21,8,8
#START
3,
,
,
,
1,
11,
1,
11,
1,
11,
1,
11,
3,//13
#GOGOSTART
11,
1111,
1,
,
11,
1105,
,
08,
1110,
1110,
1110,
1110,
2,
,
33,
30003009,
,
,
0900,
8,//33
#GOGOEND
3,
,
7,
8,
3,
,
7,
8,
11,
12,
11,
12,
1,
,
11,
1,
32,
32,
5,
8,
3,
,//55
#GOGOSTART
11,
1111,
1,
,
11,
1105,
,
000000000000000000000000000800000000000000000000,
1110,
1110,
1110,
1110,
2,
,
33,
3036,
,
,
,
000000000000000000000008000000000000000000000000,
#END
COURSE:Easy
LEVEL:1
BALLOON:12,6,6
#START
3,
,
,
,
1,
,
1,
,
1,
,
1,
,
3,//13
#GOGOSTART
1,
1,
1,
,
11,
1005,
,
08,
1,
1,
1,
1,
2,
,
33,
30003009,
,
,
0900,
8,//33
#GOGOEND
3,
,
7,
8,
3,
,
7,
8,
1,
1,
1,
1,
2,
,
11,
1,
3,
3,
5,
8,
3,
,//55
#GOGOSTART
1,
1,
1,
,
11,
1005,
,
000000000000000000000000000800000000000000000000,
1,
1,
1,
1,
2,
,
33,
3036,
,
,
,
000000000000000000000008000000000000000000000000,
#END