Files
ESE/09 Namco Original/Mayoizuki/Mayoizuki.tja
T
Thonker2 ac833d31a1 Dan-Dojo Update Part 2
09 Namco Original
Nivalis*Anima
Mayoizuki (魔宵月)
Silver Dawn Throne or Black Night Petalstone (銀の黎明か、黒の晶華か。)
2026-09-14 14:53:31 +08:00

778 lines
17 KiB
Plaintext
Executable File

//TJADB Project
TITLE:Mayoizuki
TITLEJA:魔宵月
SUBTITLE:--Azu♪ vs Masahiro "Godspeed" Aoki vs Daisuke Kurosawa
SUBTITLEJA:あず♪ vs Masahiro "Godspeed" Aoki vs 黒沢ダイスケ
BPM:105
WAVE:Mayoizuki.ogg
OFFSET:-2.450
DEMOSTART:10.435
COURSE:Edit
LEVEL:10
BALLOON:
SCOREINIT:990
SCOREDIFF:0
#START
#MEASURE 3/4
12,
100100200003,
#MEASURE 4/4
0000000000000303,
000000000000000000000000000000000000000000000000200020002000200010001000200200200100200000000000, //4
#MEASURE 9/16
101010102010222020,
#MEASURE 11/16
1010102010102022201022,
#MEASURE 9/16
101010102011202020,
#MEASURE 3/4
101020102020101022102020, //8
#MEASURE 9/16
101010102010222020,
#MEASURE 11/16
1010102010102220201020,
#MEASURE 7/8
10000000100000002000000010000000200000002000000010000000100000002000000010000000000000000004000000,
#MEASURE 15/16
000000000000000000000000000000000000100100200200100100100100200100100100202000000000000000, //12
#MEASURE 7/8
100000100100200200100200100100200020102000,
#MEASURE 4/4
10000000001000010000200002000010000200001000010000200001000020002000100020002000,
#MEASURE 7/8
100000100100200200100200100100200020102000,
#MEASURE 9/8
100000000000001000000100000020000002000000100000020000001000000100000020000001000000200000200000100000100000200000200000200000, //16
#MEASURE 7/8
1000101020201021102010212010,
#MEASURE 9/8
200000002000000010000000100000000000200000100000100000000000200000000000200000000000100000000000100000000200000000200000000100000000100000000100000000200000000100000000100000000000200000000000200000000000100000000000,
#MEASURE 13/16
100000000000000200000000000000200000000000000100000000000000200000000000000200000000000000100000000000100000000000200000000000200000000000100000000000200000000000000100000000000000200000000020000,
#MEASURE 9/8
000000000000000000000000000000200000000000000000000000000000100000000000000000000000000000200000000000000000000000000000100000000000000100000000000000100000000000000000000000000000200000000000000000000000000000200000000000000000000000000000100000000000000000000000100000000000000000000000200000000000000000000000200000000000000000000000100000000000000000000000200000000000000000001000000000000000000010000000000000000000200000000000000000000000000000100000000000000100000000000000200000000000000000000000000000200000000000000000000000000000, //20
#MEASURE 7/8
1000201020201021102010212010,
#MEASURE 9/8
200000002000000010000000200000000000200000100000100000000000200000000000200000000000100000000000100000000200000000200000000100000000100000000100000000200000000100000000100000000000200000000000200000000000100000100000,
#MEASURE 13/16
100000000000000200000000000000200000000000000100000000000000100000000000000200000000000000100000000000100000000000200000000000200000000000100000000000200000000000000100000000000000200000000020000,
#MEASURE 9/8
000000000020000000001000000000200000000010000100001000000000200000000010000000002000000010000000200000001000000010000000200001000010000100002000010000200002000010000200002000020000, //24
#MEASURE 5/4
100000002000000020000000200000002000000020000000100100100200100200200200100100100200100200200200,
100000000020000000002000000000200000000020000000002000000000000000000000000000000000100200200200100100100200100200200200,
#MEASURE 6/4
100000001000000010200000100000001000200010000000100000201000000010000000200000001000000010200000200000000000200000000100000000200000000100000000,
#MEASURE 3/4
201010201010202010211010,
200010202000212211211111, //29
#MEASURE 5/8
#GOGOSTART
200000000000100000200100000000100100200000000000200010000000,
200000000000000100000000001000000000200000001000001000000010000000000000200000000000100000000000200000100000100000100000,
200100010000200100100100200010001000100000200100100100100000,
#GOGOEND
22222211111122221111, //33
#GOGOSTART
20000020001120102111,
200000100010000000200100100100100100200010001000200010001000,
21102111201111201110,
#GOGOEND
22222211111122221111, //37
#GOGOSTART
200000100000100000200000000000100100200010001000200000100000,
20101020001120102011,
200000100100200100100100200000100000100100200000000000101000,
#GOGOEND
22222211111122221111, //41
#GOGOSTART
200020002000200200100010001000100100200200200200100010001000,
200020002000100100100100200200200020002000100010001000100100,
200020002000200200100010001000100100200200200200100010001000,
200020002000100100100100200200200020002000100010001000100100,
#GOGOEND
1001003030, //46
#MEASURE 4/4
40000000000000222000000000000000,
#SCROLL 1.33
200100100100100100200100100100100100200100100100200020002000200020002000200020002000100010001000,
200010001000100010001000100010001000200010001000200010001000200010001000200200010002000100010000,
200200100100200200100100200100100100200100100100200200200200100100100100200020002000100020002000, //50
#GOGOSTART
100100100100200000100100100200200000100100200200200000100200200200200000100100100200100020002000,
100200200200200000100100200200200000100100100200200000100100100100200100200000002000000020000000,
100100100100200000100100100200200000100100200200200000100200200200200000100010000200100100002000,
100100100100100100100100200200200200200200100100200200200200200200200200100010001000200010001000, //54
#GOGOEND
20002000111010200020001110112000,
#MEASURE 3/4
200011111021002000102020,
#MEASURE 4/4
#GOGOSTART
21112111211211211121112121112020,
#GOGOEND
#MEASURE 8/4
100010002000200020002000200010000200002000020000200000100000200000200000200000001000000020000000200000000000100000000000200000000000000010000000000000002000000000000000100000000000000000000000, //58
#MEASURE 9/16
#SCROLL 1
#GOGOSTART
101010202010222020,
#MEASURE 11/16
10000000100000001000000020000000200000002000000010000000200000020000002000000,
#MEASURE 9/16
101010202010212010,
#MEASURE 3/4
200000000000000000000000200000000000000000000000200000000000000000000000100000000000000000000000100000000000000000000000100000000000000200000000020000000002000000000200000000000000, //62
#MEASURE 9/16
101020102010222020,
#MEASURE 11/16
10000000100000002000000010000000200000002000000010000000200000020000002000000,
#MEASURE 9/16
101020102010212020,
112122112,
#GOGOEND
#BARLINEOFF
#MEASURE 4/4
500000000000000000080000, //67
#BARLINEON
#SCROLL 0.5
#GOGOSTART
4,
#GOGOEND
0, //69
#END
COURSE:Oni
LEVEL:10
BALLOON:58
SCOREINIT:1550
SCOREDIFF:0
#START
#MEASURE 3/4
12,
100100200003,
#MEASURE 4/4
0000000000000303,
000000000000222222200400, //4
#MEASURE 9/16
101020101000222020,
#MEASURE 11/16
11210120222,
#MEASURE 9/16
112110222,
#MEASURE 3/4
112122112122, //8
#MEASURE 9/16
101020101000222020,
#MEASURE 11/16
11210212020,
#MEASURE 7/8
10000000100000002000000010000000100000000000000020000000200000002000000020000000000000000003000000,
#MEASURE 15/16
000000000000002220102000400000, //12
#MEASURE 7/8
100000100000100200000000100000100020002000,
#MEASURE 4/4
10000000001000000000100002000000000000001000000000100000000010002000200020002000,
#MEASURE 7/8
100000100000100200000000100000100020002000,
#MEASURE 9/8
100000000000001000000000000010000002000000000000000000001000000000000010000000000000100000200000200000200000200000200000200000, //16
#MEASURE 7/8
10210102111210,
#MEASURE 9/8
200000001000000010000000200000000000100000000000000000000000200000000000100000000000000000000000200000000100000000100000000100000000200000000100000000100000000100000000000000000000200000000000200000000000100000000000,
#MEASURE 13/16
00000200001000010000000002000010001000200020001000100002000020000,
#MEASURE 9/8
000000000000000100000000000000000000000000000200000000000000100000000000000100000000000000200000000000000000000000000000200000000000200000000000100000000000100000000000200000000000100000000010000000002000000000200000000000000000000000000000000000000000000000000000000000, //20
#MEASURE 7/8
10210102111210,
#MEASURE 9/8
200000001000000010000000200000000000100000000000000000000000200000000000100000000000000000000000200000000100000000100000000100000000200000000100000000100000000100000000000000000000200000000000200000000000100000000000,
#MEASURE 13/16
00000200001000010000000002000010001000200020001000100002000020000,
#MEASURE 9/8
000000000010000000000000000000200000000010000000001000000000200000000000000000002000000020000000100000001000000020000000100001000010000000002000000000200000000000000000000000000000, //24
#MEASURE 5/4
30001122,
3000000122,
#MEASURE 6/4
11212212,
#MEASURE 3/4
111100211200,
201010201000201110201000, //29
#MEASURE 5/8
#GOGOSTART
20001020001120002000,
20001020001120002000,
20002010200011200000,
#GOGOEND
500000000000000000000008000000, //33
#GOGOSTART
20001020001120102000,
20001020001120102000,
20002010200011200000,
#GOGOEND
500000000000000000000008000000, //37
#GOGOSTART
20101020001120102000,
20101020001120102000,
20102010200011200000,
#GOGOEND
500000000000000000000008000000, //41
#GOGOSTART
200010001000100000200000000000100100200000100000200000000000,
200100100000200000100000200000100010001000200000100000000000,
200010001000100000200000000000100100200000100000200000000000,
200100100000200000100000200000100010001000200000100000000000,
#GOGOEND
3003004040, //46
#MEASURE 4/4
3,
#SCROLL 1.33
400000000300000000400000202020202020101010202020,
100000000000100010001000100010001000200000000000200010001000200010001000200200020001000000000000,
200200100000200000100000200200100000200000100000200200100000200000100000200020001000200000000000, //50
#GOGOSTART
11102011102011102011102011112010,
200200200000100000200200200000100000200200200000100000200200200000100000200000002000000020000000,
100100100000200000100100100000200000100100100000200000100100100000200000100010000100200200001000,
200000100000100100100000200000100000100100200000200000100000100100100000200010001000100010001000, //54
#GOGOEND
20002000110010200020001000112000,
#MEASURE 3/4
200010001021002000102120,
#MEASURE 4/4
#GOGOSTART
20102010201210201020102120102120,
#GOGOEND
#MEASURE 8/4
700000000000000000000000000000000000000000000000000000000000000000000000000000000008000000000000, //58
#MEASURE 9/16
#SCROLL 1
#GOGOSTART
101010201000222020,
#MEASURE 11/16
10000000100000001000000010000000200000001000000020000000200000020000002000000,
#MEASURE 9/16
101010201000222020,
#MEASURE 3/4
100000000000000000000000100000000000000000000000100000000000000000000000200000000000000000000000100000000000000000000000100000000000000200000000000000000002000000000200000000000000, //62
#MEASURE 9/16
101020101000222020,
#MEASURE 11/16
10000000100000001000000020000000100000001000000020000000200000020000002000000,
#MEASURE 9/16
101020101000222020,
112102112,
#GOGOEND
#BARLINEOFF
#MEASURE 4/4
500000000000000000080000, //67
#BARLINEON
#SCROLL 0.5
#GOGOSTART
4,
#GOGOEND
0, //69
#END
COURSE:Hard
LEVEL:7
BALLOON:41,40
SCOREINIT:2940
SCOREDIFF:0
#START
#MEASURE 3/4
12,
100100200003,
#MEASURE 4/4
0000000000000303,
00002024, //4
#MEASURE 9/16
110110200,
#MEASURE 11/16
11010120200,
#MEASURE 9/16
110110200,
#MEASURE 3/4
110200110200, //8
#MEASURE 9/16
110110200,
#MEASURE 11/16
11010202020,
#MEASURE 7/8
10000000100000001000000010000000100000000000000020000000200000002000000020000000000000000003000000,
#MEASURE 15/16
0, //12
#MEASURE 7/8
10101200102000,
#MEASURE 4/4
1010120010102000,
#MEASURE 7/8
10101200102000,
#MEASURE 9/8
101012001010200000, //16
#MEASURE 7/8
10110101011020,
#MEASURE 9/8
000000100100000100100000500000000000008000000200200200,
#MEASURE 13/16
0011011000222,
#MEASURE 9/8
000100000100100000100000500000000000000008000000000000, //20
#MEASURE 7/8
10110101011020,
#MEASURE 9/8
000000100100000100100000500000000000008000000200200200,
#MEASURE 13/16
0011011000222,
#MEASURE 9/8
000100000100100000100000500000000000000008000000000000, //24
#MEASURE 5/4
30001122,
3000000122,
#MEASURE 6/4
11112222,
#MEASURE 3/4
1121,
2212, //29
#MEASURE 5/8
#GOGOSTART
1011002020,
1011002020,
1010102200,
#GOGOEND
500000000000000000000008000000, //33
#GOGOSTART
1011002020,
1011002020,
1010102200,
#GOGOEND
500000000000000000000008000000, //37
#GOGOSTART
1011002020,
1011002020,
1010102200,
#GOGOEND
500000000000000000000008000000, //41
#GOGOSTART
1011012020,
1010220200,
1011012020,
1010220200,
#GOGOEND
3003004040, //46
#MEASURE 4/4
3,
#SCROLL 1.33
9,
00000009,
080, //50
#GOGOSTART
1102201102201120,
100100000200200000100100000200200000200020002000,
1102201102201120,
1000100120002000, //54
#GOGOEND
1010200101020010,
#MEASURE 3/4
102001010220,
#MEASURE 4/4
#GOGOSTART
1010202101020240,
#GOGOEND
#MEASURE 8/4
700000000000000000000000000000000000000000000000000000000000000000000000000000000008000000000000, //58
#MEASURE 9/16
#SCROLL 1
#GOGOSTART
111100200,
#MEASURE 11/16
10000000100000001000000010000000100000000000000020000000000000000000000000000,
#MEASURE 9/16
111100200,
#MEASURE 3/4
100000001000000010000000100000001000000000000200000000000000, //62
#MEASURE 9/16
111100200,
#MEASURE 11/16
10000000100000001000000010000000100000000000000020000000000000000000000000000,
#MEASURE 9/16
111100200,
111200111,
#GOGOEND
#BARLINEOFF
#MEASURE 4/4
500000000000000000080000, //67
#BARLINEON
#SCROLL 0.5
#GOGOSTART
4,
#GOGOEND
0, //69
#END
COURSE:Normal
LEVEL:6
BALLOON:27,24
SCOREINIT:4410
SCOREDIFF:0
#START
#MEASURE 3/4
12,
100000200003,
#MEASURE 4/4
0000000000000303,
0, //4
#MEASURE 9/16
100010200,
#MEASURE 11/16
10010200000,
#MEASURE 9/16
100010200,
#MEASURE 3/4
1122, //8
#MEASURE 9/16
100010200,
#MEASURE 11/16
10010200000,
#MEASURE 7/8
10000000000000000000000010000000000000000000000020000000000000000000000000000000000000000003000000,
#MEASURE 15/16
0, //12
#MEASURE 7/8
1110100,
#MEASURE 4/4
11101020,
#MEASURE 7/8
1110100,
#MEASURE 9/8
111010200, //16
#MEASURE 7/8
10010101000020,
#MEASURE 9/8
001001001000000001,
#MEASURE 13/16
0010010000200,
#MEASURE 9/8
010100002000202000, //20
#MEASURE 7/8
10010101000020,
#MEASURE 9/8
001001001000000001,
#MEASURE 13/16
0010010000200,
#MEASURE 9/8
010100002000202000, //24
#MEASURE 5/4
30001111,
3000000111,
#MEASURE 6/4
11112220,
#MEASURE 3/4
1111,
2220, //29
#MEASURE 5/8
#GOGOSTART
1001001010,
1001001000,
1010100100,
#GOGOEND
500000000000000000000008000000, //33
#GOGOSTART
1001001010,
1001001000,
1010100100,
#GOGOEND
500000000000000000000008000000, //37
#GOGOSTART
1001001010,
1001001000,
1010100100,
#GOGOEND
500000000000000000000008000000, //41
#GOGOSTART
1001001000,
1010100100,
1001001000,
1010100100,
#GOGOEND
3003003030, //46
#MEASURE 4/4
3,
#SCROLL 1.33
9,
00000009,
080, //50
#GOGOSTART
1001001001001020,
1001001001002000,
1001001001001020,
1000100220002000, //54
#GOGOEND
1010100202020010,
#MEASURE 3/4
101002020200,
#MEASURE 4/4
#GOGOSTART
1010200101020040,
#GOGOEND
#MEASURE 8/4
700000000000000000000000000000000000000000000000000000000000000000000000000000000008000000000000, //58
#MEASURE 9/16
#SCROLL 1
#GOGOSTART
112,
#MEASURE 11/16
10000000000000001000000000000000100000000000000020000000000000000000000000000,
#MEASURE 9/16
112,
#MEASURE 3/4
10000000100000020000, //62
#MEASURE 9/16
112,
#MEASURE 11/16
10000000000000001000000000000000100000000000000020000000000000000000000000000,
#MEASURE 9/16
112,
111,
#GOGOEND
#BARLINEOFF
#MEASURE 4/4
500000000000000000080000, //67
#BARLINEON
#SCROLL 0.5
#GOGOSTART
4,
#GOGOEND
0, //69
#END
COURSE:Easy
LEVEL:5
BALLOON:20,20
SCOREINIT:6440
SCOREDIFF:0
#START
#MEASURE 3/4
0,
000000000003,
#MEASURE 4/4
0000000000000303,
0, //4
#MEASURE 9/16
100010000,
#MEASURE 11/16
10010000000,
#MEASURE 9/16
100010000,
#MEASURE 3/4
2220, //8
#MEASURE 9/16
100010000,
#MEASURE 11/16
10010000000,
#MEASURE 7/8
500000000000000000000000000008000000000300,
#MEASURE 15/16
0, //12
#MEASURE 7/8
1010000,
#MEASURE 4/4
1110,
#MEASURE 7/8
1010000,
#MEASURE 9/8
101010200, //16
#MEASURE 7/8
10010000000000,
#MEASURE 9/8
001001001000000001,
#MEASURE 13/16
0010000000000,
#MEASURE 9/8
010100002000200000, //20
#MEASURE 7/8
10010000000000,
#MEASURE 9/8
001001001000000001,
#MEASURE 13/16
0010000000000,
#MEASURE 9/8
010100002000200000, //24
#MEASURE 5/4
3,
3,
#MEASURE 6/4
1122,
#MEASURE 3/4
1110,
2220, //29
#MEASURE 5/8
#GOGOSTART
10010,
10010,
11100,
#GOGOEND
500000000000000000000008000000, //33
#GOGOSTART
10010,
10010,
11100,
#GOGOEND
500000000000000000000008000000, //37
#GOGOSTART
10010,
10010,
11100,
#GOGOEND
500000000000000000000008000000, //41
#GOGOSTART
1001001000,
1010100000,
1001001000,
1010100000,
#GOGOEND
3003003030, //46
#MEASURE 4/4
3,
#SCROLL 1.33
9,
00000009,
080, //50
#GOGOSTART
1001001001001000,
1001001001002000,
1001001001001000,
2222, //54
#GOGOEND
1010000101000010,
#MEASURE 3/4
100001010000,
#MEASURE 4/4
#GOGOSTART
1010100101010040,
#GOGOEND
#MEASURE 8/4
700000000000000000000000000000000000000000000000000000000000000000000000000000000008000000000000, //58
#MEASURE 9/16
#SCROLL 1
#GOGOSTART
110,
#MEASURE 11/16
10000000000000001000000000000000100000000000000000000000000000000000000000000,
#MEASURE 9/16
110,
#MEASURE 3/4
20200, //62
#MEASURE 9/16
110,
#MEASURE 11/16
10000000000000001000000000000000100000000000000000000000000000000000000000000,
#MEASURE 9/16
110,
222,
#GOGOEND
#BARLINEOFF
#MEASURE 4/4
500000000000000000080000, //67
#BARLINEON
#SCROLL 0.5
#GOGOSTART
4,
#GOGOEND
0, //69
#END