Add Traditional Chinese title (1276 charts) and subtitle (900 charts) header fields. Header additions only; no chart data changed. Co-Authored-By: Claude Opus 5 <noreply@anthropic.com>
411 lines
4.7 KiB
Plaintext
411 lines
4.7 KiB
Plaintext
//TJADB Project
|
|
TITLE:Dairokkan
|
|
TITLEJA:第六感
|
|
TITLEZH:第六感
|
|
TITLEKO:THE SIXTH SENSE
|
|
TITLEZH_TW:第六感
|
|
SUBTITLE:--Reol/DYNAMITE BOAT RACE
|
|
SUBTITLEJA:Reol
|
|
SUBTITLEZH:Reol
|
|
SUBTITLEZH_TW:--Reol
|
|
BPM:134
|
|
WAVE:Dairokkan.ogg
|
|
OFFSET:-1.863
|
|
DEMOSTART:36.780
|
|
|
|
//SONG_ID:dai6kn
|
|
|
|
COURSE:Oni
|
|
LEVEL:7
|
|
BALLOON:20
|
|
SCOREINIT:1830
|
|
SCOREDIFF:0
|
|
|
|
#START
|
|
2220002220001020,
|
|
1020202010221010,
|
|
2220002220001020,
|
|
1020202011200020,
|
|
|
|
2220002220001020,
|
|
1020202010200022,
|
|
1020002211200020,
|
|
1020001120221000,
|
|
|
|
1110201110202000,
|
|
1020102210111020,
|
|
1110201110202000,
|
|
1020102210102220,
|
|
|
|
1010201010222011,
|
|
1010201110102011,
|
|
2010201120102010,
|
|
1010202210111000,
|
|
|
|
2000201220102002,
|
|
2022221020112010,
|
|
5,
|
|
000000000000000000000008000000200000200200000000, //20
|
|
|
|
#GOGOSTART
|
|
1000102211010020,
|
|
3020302011012000,
|
|
1010222010112020,
|
|
1110111010104000,
|
|
1000102210110020,
|
|
3020302011102010,
|
|
|
|
1010201020222010,
|
|
1020201120102011,
|
|
1022102210203030,
|
|
#GOGOEND
|
|
0020120210212020,
|
|
|
|
#GOGOSTART
|
|
500000000000000000000000000008000000200000200000,
|
|
#GOGOEND
|
|
100000200000100200200200000200200200100000200020,
|
|
#GOGOSTART
|
|
500000000000000000000008000000200200200000200000,
|
|
#GOGOEND
|
|
2010201020111122,
|
|
|
|
#GOGOSTART
|
|
500000000000000000000000000008000000200000000000,
|
|
#GOGOEND
|
|
1040111211121000,
|
|
32232270,
|
|
00000800, //38
|
|
|
|
1010111020102011,
|
|
1010201020221220,
|
|
1010111020102011,
|
|
1010201020221120,
|
|
|
|
1010001110201020,
|
|
0010101110102220,
|
|
1010222011202210,
|
|
1220211020102211,
|
|
|
|
2020002021102000,
|
|
1020202011102010,
|
|
2020002021102010,
|
|
0010201101102010,
|
|
|
|
10211121,
|
|
10211121,
|
|
1110211011112111,
|
|
500000000000000000000008000000200000200200000000, //54
|
|
|
|
#GOGOSTART
|
|
1000102211010020,
|
|
3020302011012220,
|
|
1010222010112020,
|
|
1110111010104040,
|
|
1000102210110020,
|
|
3020302011102010,
|
|
|
|
1020102010222011,
|
|
1020102211102011,
|
|
1022112211103030,
|
|
#GOGOEND
|
|
0020120210212040,
|
|
0, //65
|
|
#END
|
|
|
|
|
|
COURSE:Hard
|
|
LEVEL:5
|
|
BALLOON:12,16
|
|
SCOREINIT:2840
|
|
SCOREDIFF:0
|
|
|
|
#START
|
|
22022000,
|
|
12221201,
|
|
22022000,
|
|
12221200,
|
|
|
|
22022000,
|
|
12221202,
|
|
1020002022200020,
|
|
70000800,
|
|
|
|
11011020,
|
|
10101112,
|
|
11011020,
|
|
10101100,
|
|
|
|
1010201010202011,
|
|
1010001110100011,
|
|
11010101,
|
|
1000100010111000,
|
|
|
|
20202120,
|
|
20202121,
|
|
5,
|
|
000000000000000000000008000000000000000000000000, //20
|
|
|
|
#GOGOSTART
|
|
1000100011010010,
|
|
3000300011010000,
|
|
11221122,
|
|
11110040,
|
|
1000100010110010,
|
|
3000300011100010,
|
|
|
|
11211021,
|
|
11212021,
|
|
12212033,
|
|
#GOGOEND
|
|
0020020010202020,
|
|
|
|
#GOGOSTART
|
|
500000000000000000000000000008000000200000000000,
|
|
#GOGOEND
|
|
1000202220104000,
|
|
#GOGOSTART
|
|
500000000000000000000000000008000000200000000000,
|
|
#GOGOEND
|
|
2010201020111000,
|
|
|
|
#GOGOSTART
|
|
500000000000000000000000000008000000200000000000,
|
|
#GOGOEND
|
|
1000111011101000,
|
|
30030070,
|
|
00000800, //38
|
|
|
|
11101102,
|
|
11110222,
|
|
11101102,
|
|
11110222,
|
|
|
|
11011111,
|
|
01101112,
|
|
12101212,
|
|
1010111010102000,
|
|
|
|
22022010,
|
|
12221210,
|
|
22022001,
|
|
01210111,
|
|
|
|
10201110,
|
|
10201110,
|
|
1010111010101110,
|
|
500000000000000000000008000000000000000000000000, //54
|
|
|
|
#GOGOSTART
|
|
1000100011010010,
|
|
3000300011010000,
|
|
11221122,
|
|
11110040,
|
|
1000100010110010,
|
|
3000300011100010,
|
|
|
|
11211021,
|
|
11212021,
|
|
12212033,
|
|
#GOGOEND
|
|
0020020010202040,
|
|
0, //65
|
|
#END
|
|
|
|
|
|
COURSE:Normal
|
|
LEVEL:5
|
|
BALLOON:8,10
|
|
SCOREINIT:4210
|
|
SCOREDIFF:0
|
|
|
|
#START
|
|
22022000,
|
|
21,
|
|
22022000,
|
|
21,
|
|
|
|
22022000,
|
|
20001002,
|
|
20022200,
|
|
70000800,
|
|
|
|
11011000,
|
|
10101110,
|
|
11011000,
|
|
10101100,
|
|
|
|
10111020,
|
|
11001100,
|
|
11010101,
|
|
10101110,
|
|
|
|
2222,
|
|
2222,
|
|
5,
|
|
000000000000000000000008000000000000000000000000, //20
|
|
|
|
#GOGOSTART
|
|
1000100010010000,
|
|
3330,
|
|
1212,
|
|
11110040,
|
|
1000100010010000,
|
|
3330,
|
|
|
|
10111020,
|
|
10111020,
|
|
10111033,
|
|
#GOGOEND
|
|
00002222,
|
|
|
|
#GOGOSTART
|
|
500000000000000000000000000008000000000000000000,
|
|
#GOGOEND
|
|
10200140,
|
|
#GOGOSTART
|
|
500000000000000000000000000008000000000000000000,
|
|
#GOGOEND
|
|
21212000,
|
|
|
|
#GOGOSTART
|
|
500000000000000000000000000008000000000000000000,
|
|
#GOGOEND
|
|
1111,
|
|
30030070,
|
|
00000800, //38
|
|
|
|
10101100,
|
|
10110020,
|
|
10101100,
|
|
10110020,
|
|
|
|
11011011,
|
|
01101020,
|
|
10101110,
|
|
11101020,
|
|
|
|
22022000,
|
|
10101110,
|
|
22022001,
|
|
01010111,
|
|
|
|
1211,
|
|
1211,
|
|
11101110,
|
|
500000000000000000000008000000000000000000000000, //54
|
|
|
|
#GOGOSTART
|
|
1000100010010000,
|
|
3330,
|
|
1212,
|
|
11110000,
|
|
1000100010010000,
|
|
3330,
|
|
|
|
10111020,
|
|
10111020,
|
|
10111033,
|
|
#GOGOEND
|
|
00002224,
|
|
0, //65
|
|
#END
|
|
|
|
|
|
COURSE:Easy
|
|
LEVEL:3
|
|
BALLOON:6,4,8,7,4
|
|
SCOREINIT:9450
|
|
SCOREDIFF:0
|
|
|
|
#START
|
|
2,
|
|
2,
|
|
2,
|
|
2,
|
|
|
|
2,
|
|
2,
|
|
2,
|
|
70000800,
|
|
|
|
11,
|
|
1,
|
|
11,
|
|
1,
|
|
|
|
11,
|
|
11,
|
|
1,
|
|
11,
|
|
|
|
22,
|
|
22,
|
|
5,
|
|
000000000000000000000008000000000000000000000000, //20
|
|
|
|
#GOGOSTART
|
|
11,
|
|
3330,
|
|
11,
|
|
1100,
|
|
11,
|
|
3330,
|
|
|
|
1011,
|
|
1011,
|
|
17,
|
|
#GOGOEND
|
|
80000200,
|
|
|
|
#GOGOSTART
|
|
500000000000000000000000000008000000000000000000,
|
|
#GOGOEND
|
|
10000100,
|
|
#GOGOSTART
|
|
500000000000000000000000000008000000000000000000,
|
|
#GOGOEND
|
|
2220,
|
|
|
|
#GOGOSTART
|
|
500000000000000000000000000008000000000000000000,
|
|
#GOGOEND
|
|
11,
|
|
30030070,
|
|
00000800, //38
|
|
|
|
11,
|
|
1100,
|
|
11,
|
|
1100,
|
|
|
|
11,
|
|
000000500000000000000000000008000000000000000000,
|
|
11,
|
|
1110,
|
|
|
|
22,
|
|
2,
|
|
20002007,
|
|
00000800,
|
|
|
|
1100,
|
|
1100,
|
|
1111,
|
|
500000000000000000000008000000000000000000000000, //54
|
|
|
|
#GOGOSTART
|
|
11,
|
|
3330,
|
|
11,
|
|
1100,
|
|
11,
|
|
3330,
|
|
|
|
1011,
|
|
1011,
|
|
17,
|
|
#GOGOEND
|
|
80000004,
|
|
0, //65
|
|
#END |