Add Traditional Chinese title (1276 charts) and subtitle (900 charts) header fields. Header additions only; no chart data changed. Co-Authored-By: Claude Opus 5 <noreply@anthropic.com>
669 lines
7.9 KiB
Plaintext
669 lines
7.9 KiB
Plaintext
//TJADB Project
|
||
TITLE:Iiko Shinkaron (feat. O-LuHA)
|
||
TITLEJA:イイコ進化論(feat. O-LuHA)
|
||
TITLEZH:イイコ進化論(feat. O-LuHA)
|
||
TITLEZH_TW:イイコ進化論(feat. O-LuHA)
|
||
SUBTITLE:--ECCHAN
|
||
SUBTITLEJA:えっちゃん
|
||
SUBTITLEZH_TW:--えっちゃん
|
||
BPM:270
|
||
WAVE:Iiko Shinkaron.ogg
|
||
OFFSET:-2.264
|
||
DEMOSTART:83.122
|
||
|
||
//SONG_ID:umiiko
|
||
|
||
COURSE:Oni
|
||
LEVEL:9
|
||
BALLOON:32,16,12,16,32
|
||
SCOREINIT:1460
|
||
SCOREDIFF:0
|
||
|
||
#START
|
||
#BARLINEOFF
|
||
#MEASURE 8/4
|
||
#SCROLL 0.75
|
||
0,
|
||
0,
|
||
0,
|
||
|
||
#BARLINEON
|
||
#SCROLL 0.5
|
||
7
|
||
#SCROLL 0.75
|
||
0,
|
||
08,
|
||
1001001020111010,
|
||
1001001022112211,
|
||
|
||
1001001020111010,
|
||
1001001020101110,
|
||
1001001020111010,
|
||
10000010000010002020101020222020, //11
|
||
|
||
3022121012112012,
|
||
1022121022122022,
|
||
1022121012112012,
|
||
1022121012122122,
|
||
|
||
3022121012112012,
|
||
1022121022122022,
|
||
1022121012112012,
|
||
700000000000000000000000000000000000000000000000000000000000000000000000080000000000000000000000,
|
||
|
||
1020101110111020,
|
||
1021101010111020,
|
||
1020101110102010,
|
||
1010201110224020,
|
||
|
||
1020102112112010,
|
||
1020102112112020,
|
||
1020102112112010,
|
||
1010202210221222, //27
|
||
|
||
#GOGOSTART
|
||
10002000100020111010101020001000,
|
||
10002000100020111010101020002000,
|
||
10002000100020111010101020001000,
|
||
#GOGOEND
|
||
3003003030030030,
|
||
|
||
#GOGOSTART
|
||
10002000100020111010101020001000,
|
||
10002000100020111010101020002000,
|
||
10002000100020111010101020001000,
|
||
#GOGOEND
|
||
300000200100000200100000101010100000400000000000,
|
||
|
||
30001110000010004000101010001000,
|
||
30001110000010004000101020201010,
|
||
30001110000010004000101010001000,
|
||
#GOGOSTART
|
||
500000000000000000000000000000000000000000000000000000000000000000000000000000000008000000000000,
|
||
#GOGOEND
|
||
|
||
30001110000010004000101010001000,
|
||
30001110000010004000101020201010,
|
||
10112111,
|
||
2010201020102011,
|
||
|
||
2011201121112111,
|
||
3003003030030030,
|
||
700000000000000000000000000000000000000000000008000000000000000000000000000000000000000000000000, //46
|
||
|
||
#MEASURE 4/4
|
||
#SCROLL 1
|
||
#GOGOSTART
|
||
10210120,
|
||
10201120,
|
||
10210120,
|
||
11201120,
|
||
|
||
10210120,
|
||
10201122,
|
||
10210120,
|
||
10221222,
|
||
|
||
10210121,
|
||
10211120,
|
||
10210121,
|
||
10211120,
|
||
|
||
30030030,
|
||
40040040,
|
||
21212121,
|
||
20222222, //62
|
||
|
||
10210120,
|
||
10201120,
|
||
10210120,
|
||
10201120,
|
||
|
||
30230140,
|
||
30230140,
|
||
6,
|
||
000000000000000000000000000000000008000000000000,
|
||
|
||
10210120,
|
||
10201120,
|
||
10210120,
|
||
10201120,
|
||
|
||
10210120,
|
||
10201120,
|
||
10211021,
|
||
10211120, //78
|
||
|
||
10210120,
|
||
2011101020202020,
|
||
7,
|
||
08,
|
||
|
||
30210120,
|
||
1000200011102000,
|
||
10210120,
|
||
1000200011102000,
|
||
|
||
10210120,
|
||
1000200011102000,
|
||
10120210,
|
||
32223222,
|
||
|
||
30210120,
|
||
1000200011102000,
|
||
10210120,
|
||
1000202011102000, //94
|
||
|
||
10210120,
|
||
1000200011102000,
|
||
10120210,
|
||
32223222,
|
||
|
||
7,
|
||
0,
|
||
0,
|
||
8,
|
||
|
||
0,
|
||
0,
|
||
0,
|
||
0,
|
||
|
||
0,
|
||
#GOGOEND
|
||
0,
|
||
0,
|
||
0, //110
|
||
#END
|
||
|
||
|
||
COURSE:Hard
|
||
LEVEL:7
|
||
BALLOON:24,12,9,12,24
|
||
SCOREINIT:2140
|
||
SCOREDIFF:0
|
||
|
||
#START
|
||
#BARLINEOFF
|
||
#MEASURE 8/4
|
||
#SCROLL 0.75
|
||
0,
|
||
0,
|
||
0,
|
||
|
||
#BARLINEON
|
||
#SCROLL 0.5
|
||
7
|
||
#SCROLL 0.75
|
||
0,
|
||
08,
|
||
1001001020101000,
|
||
1001001022002200,
|
||
|
||
1001001020001000,
|
||
1001001020101000,
|
||
1001001020001000,
|
||
1001001022002200, //11
|
||
|
||
1001201010012010,
|
||
1001201010111022,
|
||
1001201010012010,
|
||
1001201010112022,
|
||
|
||
1001201010012010,
|
||
1001201010111022,
|
||
1001201010012010,
|
||
7008,
|
||
|
||
1020100010111010,
|
||
1020100010111010,
|
||
12101500,
|
||
000000000000000000000000000000000000000000000000000000000000000000000008000000000000000000000000,
|
||
|
||
1020100010112010,
|
||
1020100010112020,
|
||
12101500,
|
||
000000000000000000000000000000000000000000000000000000000000000000000008000000000000000000000000, //27
|
||
|
||
#GOGOSTART
|
||
1000201101101020,
|
||
1000201101102020,
|
||
1000201101101020,
|
||
#GOGOEND
|
||
3003003030030030,
|
||
|
||
#GOGOSTART
|
||
1000201101101020,
|
||
1000201101102020,
|
||
1000201101101020,
|
||
#GOGOEND
|
||
3003003040004000,
|
||
|
||
3011001040101010,
|
||
3011001040002200,
|
||
3011001040101010,
|
||
#GOGOSTART
|
||
500000000000000000000000000000000000000000000000000000000000000000000000000000000008000000000000,
|
||
#GOGOEND
|
||
|
||
3011001040101010,
|
||
3011001040002200,
|
||
1111,
|
||
11101110,
|
||
|
||
1010101010101110,
|
||
3003003030030030,
|
||
700000000000000000000000000000000000000000000008000000000000000000000000000000000000000000000000, //46
|
||
|
||
#MEASURE 4/4
|
||
#SCROLL 1
|
||
#GOGOSTART
|
||
1212,
|
||
10201110,
|
||
1212,
|
||
10201110,
|
||
|
||
1212,
|
||
10201110,
|
||
10010010,
|
||
12,
|
||
|
||
1212,
|
||
10201110,
|
||
1212,
|
||
10201110,
|
||
|
||
30030030,
|
||
40040040,
|
||
600000000000000000000000000000000008000000000000,
|
||
22, //62
|
||
|
||
1212,
|
||
10201110,
|
||
1212,
|
||
10201110,
|
||
|
||
30030040,
|
||
30030040,
|
||
6,
|
||
000000000000000000000000000000000008000000000000,
|
||
|
||
1212,
|
||
10201110,
|
||
10201110,
|
||
10201110,
|
||
|
||
1212,
|
||
10201110,
|
||
10201110,
|
||
10201110, //78
|
||
|
||
1212,
|
||
11102000,
|
||
7,
|
||
08,
|
||
|
||
3212,
|
||
11101110,
|
||
1212,
|
||
11101110,
|
||
|
||
1212,
|
||
11101110,
|
||
1212,
|
||
33,
|
||
|
||
3212,
|
||
11101110,
|
||
1212,
|
||
11101110, //94
|
||
|
||
1212,
|
||
11101110,
|
||
1212,
|
||
33,
|
||
|
||
7,
|
||
0,
|
||
0,
|
||
8,
|
||
|
||
0,
|
||
0,
|
||
0,
|
||
0,
|
||
|
||
0,
|
||
#GOGOEND
|
||
0,
|
||
0,
|
||
0, //110
|
||
#END
|
||
|
||
|
||
COURSE:Normal
|
||
LEVEL:6
|
||
BALLOON:16,9,6,9,17
|
||
SCOREINIT:3900
|
||
SCOREDIFF:0
|
||
|
||
#START
|
||
#BARLINEOFF
|
||
#MEASURE 8/4
|
||
#SCROLL 0.75
|
||
0,
|
||
0,
|
||
0,
|
||
|
||
#BARLINEON
|
||
#SCROLL 0.5
|
||
7
|
||
#SCROLL 0.75
|
||
0,
|
||
08,
|
||
1001000020000000,
|
||
1001000020002000,
|
||
|
||
1001000020000000,
|
||
1001000020000000,
|
||
1001000020000000,
|
||
1001000020002000, //11
|
||
|
||
1111,
|
||
10101120,
|
||
1111,
|
||
10102120,
|
||
|
||
1111,
|
||
10101120,
|
||
1111,
|
||
7008,
|
||
|
||
1011,
|
||
1011,
|
||
10100500,
|
||
000000000000000000000000000000000000000000000000000000000000000000000008000000000000000000000000,
|
||
|
||
1011,
|
||
1011,
|
||
10100500,
|
||
000000000000000000000000000000000000000000000000000000000000000000000008000000000000000000000000, //27
|
||
|
||
#GOGOSTART
|
||
1000000100101000,
|
||
1000000100202000,
|
||
1000000100101000,
|
||
#GOGOEND
|
||
600000000000000000000000000000000000000000000000000000000000000000000000000000000008000000000000,
|
||
|
||
#GOGOSTART
|
||
1000000100101000,
|
||
1000000100202000,
|
||
1000000100101000,
|
||
#GOGOEND
|
||
34,
|
||
|
||
3001000040001000,
|
||
3001000040002000,
|
||
3001000040001000,
|
||
#GOGOSTART
|
||
500000000000000000000000000000000000000000000000000000000000000000000000000000000008000000000000,
|
||
#GOGOEND
|
||
|
||
3001000040001000,
|
||
3001000040002000,
|
||
1111,
|
||
1111,
|
||
|
||
11101110,
|
||
3003000030030000,
|
||
700000000000000000000000000000000000000000000008000000000000000000000000000000000000000000000000, //46
|
||
|
||
#MEASURE 4/4
|
||
#SCROLL 1
|
||
#GOGOSTART
|
||
11,
|
||
1210,
|
||
11,
|
||
1212,
|
||
|
||
11,
|
||
1210,
|
||
11,
|
||
1212,
|
||
|
||
11,
|
||
1210,
|
||
11,
|
||
1212,
|
||
|
||
30030000,
|
||
30030000,
|
||
600000000000000000000000000000000008000000000000,
|
||
22, //62
|
||
|
||
11,
|
||
1210,
|
||
11,
|
||
1212,
|
||
|
||
30030000,
|
||
30030000,
|
||
6,
|
||
000000000000000000000000000000000008000000000000,
|
||
|
||
11,
|
||
1212,
|
||
11,
|
||
1122,
|
||
|
||
12,
|
||
1212,
|
||
12,
|
||
12, //78
|
||
|
||
11,
|
||
2120,
|
||
7,
|
||
08,
|
||
|
||
31,
|
||
1210,
|
||
11,
|
||
1210,
|
||
|
||
11,
|
||
1210,
|
||
1210,
|
||
33,
|
||
|
||
31,
|
||
1210,
|
||
11,
|
||
1212, //94
|
||
|
||
11,
|
||
1210,
|
||
1210,
|
||
33,
|
||
|
||
7,
|
||
0,
|
||
0,
|
||
8,
|
||
|
||
0,
|
||
0,
|
||
0,
|
||
0,
|
||
|
||
0,
|
||
#GOGOEND
|
||
0,
|
||
0,
|
||
0, //110
|
||
#END
|
||
|
||
|
||
COURSE:Easy
|
||
LEVEL:3
|
||
BALLOON:12,6,5,7,12
|
||
SCOREINIT:7180
|
||
SCOREDIFF:0
|
||
|
||
#START
|
||
#BARLINEOFF
|
||
#MEASURE 8/4
|
||
#SCROLL 0.75
|
||
0,
|
||
0,
|
||
0,
|
||
|
||
#BARLINEON
|
||
#SCROLL 0.5
|
||
7
|
||
#SCROLL 0.75
|
||
0,
|
||
08,
|
||
12,
|
||
1022,
|
||
|
||
12,
|
||
12,
|
||
12,
|
||
1022, //11
|
||
|
||
11,
|
||
1011,
|
||
11,
|
||
1022,
|
||
|
||
11,
|
||
1011,
|
||
11,
|
||
7008,
|
||
|
||
1,
|
||
1,
|
||
10000500,
|
||
000000000000000000000000000000000000000000000000000000000000000000000008000000000000000000000000,
|
||
|
||
11,
|
||
11,
|
||
10000500,
|
||
000000000000000000000000000000000000000000000000000000000000000000000008000000000000000000000000, //27
|
||
|
||
#GOGOSTART
|
||
1000000100000000,
|
||
1000000100000000,
|
||
1000000100000000,
|
||
#GOGOEND
|
||
600000000000000000000000000000000000000000000000000000000000000000000000000008000000000000000000,
|
||
|
||
#GOGOSTART
|
||
1000000100000000,
|
||
1000000100000000,
|
||
1000000100000000,
|
||
#GOGOEND
|
||
33,
|
||
|
||
34,
|
||
34,
|
||
34,
|
||
#GOGOSTART
|
||
500000000000000000000000000000000000000000000000000000000000000000000000000008000000000000000000,
|
||
#GOGOEND
|
||
|
||
34,
|
||
34,
|
||
11,
|
||
11,
|
||
|
||
1111,
|
||
33,
|
||
700000000000000000000000000000000000000000000008000000000000000000000000000000000000000000000000, //46
|
||
|
||
#MEASURE 4/4
|
||
#SCROLL 1
|
||
#GOGOSTART
|
||
1,
|
||
11,
|
||
1,
|
||
22,
|
||
|
||
1,
|
||
11,
|
||
1,
|
||
2,
|
||
|
||
1,
|
||
11,
|
||
1,
|
||
22,
|
||
|
||
3,
|
||
3,
|
||
600000000000000000000000000000000008000000000000,
|
||
0, //62
|
||
|
||
3,
|
||
11,
|
||
1,
|
||
22,
|
||
|
||
3,
|
||
3,
|
||
6,
|
||
000000000000000000000000000008000000000000000000,
|
||
|
||
1,
|
||
11,
|
||
1,
|
||
22,
|
||
|
||
1,
|
||
1,
|
||
22,
|
||
22, //78
|
||
|
||
2,
|
||
2,
|
||
7,
|
||
08,
|
||
|
||
3,
|
||
12,
|
||
1,
|
||
12,
|
||
|
||
1,
|
||
12,
|
||
1,
|
||
33,
|
||
|
||
3,
|
||
12,
|
||
1,
|
||
12, //94
|
||
|
||
1,
|
||
12,
|
||
1,
|
||
33,
|
||
|
||
7,
|
||
0,
|
||
0,
|
||
8,
|
||
|
||
0,
|
||
0,
|
||
0,
|
||
0,
|
||
|
||
0,
|
||
#GOGOEND
|
||
0,
|
||
0,
|
||
0, //110
|
||
#END |