Files
ESE/07 Game Music/ALRIGHT/ALRIGHT.tja
T
2026-09-09 16:46:55 -04:00

526 lines
5.5 KiB
Plaintext
Raw Blame History

This file contains ambiguous Unicode characters
This file contains Unicode characters that might be confused with other characters. If you think that this is intentional, you can safely ignore this warning. Use the Escape button to reveal them.
//TJADB Project
TITLE:ALRIGHT*
TITLEJA:ALRIGHT*
SUBTITLE:--cota feat. Zumi Asakura/THE iDOLM@STER SHINY FESTA: Groovy Tune
SUBTITLEJA:
BPM:184
WAVE:ALRIGHT.ogg
OFFSET:-1.609
DEMOSTART:45.953
SCENEPRESET:IMAS
COURSE:Oni
LEVEL:8
BALLOON:4
SCOREINIT:540,1670
SCOREDIFF:138
#START
0,
0,
2,
2,
2,
2,
30030030,
0,
0, //9
10211021,
01211120,
11201120,
22114040,
10211021,
01212121,
2211,
3030003020111020, //17
1000201011102010,
0010201011102000,
1110222011102220,
2220111040004000,
1000201011102010,
0010222011102000,
1110222011102220,
1011201020112000, //25
10210121,
10212020,
10210120,
1000201000102022,
1022201000102010,
1022201020002000,
1010201000112010,
0011201000201000,
33030333, //34
#GOGOSTART
1111103000102010,
1110222011102220,
1110201011102000,
33,
1111103000102010,
1110222011102220,
1110202011102000,
33040411, //42
2000201120102010,
20212120,
1000102210201000,
1000102210201000,
1020112010201000,
1011201110112000,
6,
000000000000000000000000000000000008000000000000,
21212121,
01212121, //52
#GOGOEND
2,
0,
2,
22,
2,
0,
200000000000000000000000700000000000000008000000,
3030003000302022, //60
10202021,
10202021,
10202021,
1111101110102000,
1000201120102012,
1010201120102012,
1010201120102000,
33030300, //68
#GOGOSTART
1111103000102010,
1110222011102220,
1110201011102000,
33,
1111103000102010,
1110222011102220,
1110202011102000,
33040411, //76
2000201120102010,
20212120,
1000102210201000,
1000102210201000,
1020112010201000,
1011201110112000, //82
6,
000000000000000000000000000000000008000000000000,
21212121,
01212121,
3030003000302220,
3030003000302220,
3030003000302222,
1, //90
#GOGOEND
0,
0, //92
#END
COURSE:Hard
LEVEL:5
BALLOON:4
SCOREINIT:630,2650
SCOREDIFF:170
#START
0,
0,
2,
2,
2,
2,
30030030,
0,
0,
10111022,
02201010,
2211,
22114040,
10111022,
02222022,
1111,
33030000,
10111021,
01201010,
2211,
22114040,
10111021,
01201010,
2211,
33030000,
10010040,
10010040,
10010040,
10010040,
10110110,
01101010,
22220022,
00220020,
33030333,//34
#GOGOSTART
30030002,
11201120,
500000000000000000000000000000000008000000000000,
44,
30030002,
11201120,
500000000000000000000000000000000008000000000000,
44040400,
20212120,
20212120,
10121210,
10121210,
20212120,
13,
6,
000000000000000000000000000000000008000000000000,
0202,
0202,//52
#GOGOEND
2,
0,
2,
22,
2,
0,
200000000000000000000000700000000000000008000000,
33030300,
10202021,
10202021,
10202021,
11221120,
10212020,
10212020,
10212020,
33030300,//68
#GOGOSTART
30030002,
11201120,
500000000000000000000000000000000008000000000000,
44,
30030002,
11201120,
500000000000000000000000000000000008000000000000,
44040400,
20212120,
20212120,
10121210,
10121210,
20212120,
13,
6,
000000000000000000000000000000000008000000000000,
0202,
0202,
33030300,
33030300,
33030300,
4, //90
#GOGOEND
0,
0,
#END
COURSE:Normal
LEVEL:5
BALLOON:
SCOREINIT:740,3960
SCOREDIFF:253
#START
0,
0,
0,
0,
0,
0,
30030030,
0,
0,
11,
1110,
11,
1144,
11,
1110,
11,
33030000,
11,
1110,
11,
1144,
11,
1122,
11,
3333,
500000000000000000000008000000000000400000000000,
500000000000000000000008000000000000400000000000,
500000000000000000000008000000000000400000000000,
500000000000000000000008000000000000400000000000,
0101,
0202,
0101,
0202,
33030330,//34
#GOGOSTART
30030000,
1122,
500000000000000000000000000000000008000000000000,
44,
30030000,
1122,
500000000000000000000000000000000008000000000000,
44040400,
1022,
1022,
1022,
1120,
1122,
13,
6,
000000000000000000000000000000000008000000000000,
0202,
0202,//52
#GOGOEND
2,
0,
2,
22,
2,
0,
2,
33030300,
1022,
1022,
1022,
1122,
5,
000000000000000000000000000000000000000000000008,
0,
33030300,//68
#GOGOSTART
30030000,
1122,
500000000000000000000000000000000008000000000000,
44,
30030000,
1122,
500000000000000000000000000000000008000000000000,
44040400,
1022,
1022,
1022,
1120,
1122,
13,
6,
000000000000000000000000000000000008000000000000,
0,
0,
33030300,
33030300,
33030300,
4, //90
#GOGOEND
0,
0,
#END
COURSE:Easy
LEVEL:3
BALLOON:4,4,4,4,4
SCOREINIT:630,5840
SCOREDIFF:220
#START
0,
0,
0,
0,
0,
0,
30030030,
0,
0,
12,
12,
11,
1033,
12,
12,
11,
3,
12,
12,
11,
1033,
12,
1022,
11,
3333,
500000000000000000000008000000000000400000000000,
500000000000000000000008000000000000400000000000,
500000000000000000000008000000000000400000000000,
500000000000000000000008000000000000400000000000,
0101,
0202,
0101,
0202,
7008,//34
#GOGOSTART
30030000,
1111,
500000000000000000000000000008000000000000000000,
44,
30030000,
1111,
500000000000000000000000000008000000000000000000,
7008,
11,
1,
22,
2,
11,
13,
6,
000000000000000000000000000000000008000000000000,
0202,
0202,//52
#GOGOEND
2,
0,
2,
22,
2,
0,
2,
7008,
11,
1,
11,
1111,
5,
000000000000000000000000000000000000000000000008,
0,
7008,//68
#GOGOSTART
30030000,
1111,
500000000000000000000000000008000000000000000000,
44,
30030000,
1111,
500000000000000000000000000008000000000000000000,
7008,
11,
1,
22,
2,
11,
13,
6,
000000000000000000000000000000000008000000000000,
0,
0,
33000000,
33000000,
33000000,
4, //90
#GOGOEND
0,
0,
#END