110 lines
4.2 KiB
Plaintext
110 lines
4.2 KiB
Plaintext
//TJADB Project
|
|
TITLE:Battle for Justice
|
|
TITLEJA:Battle For Justice
|
|
SUBTITLE:--Takahiro Kai/Chain Chronicle
|
|
SUBTITLEJA:「チェインクロニクル」より
|
|
BPM:136
|
|
WAVE:Battle for Justice.ogg
|
|
OFFSET:-0.077
|
|
DEMOSTART:51.253
|
|
|
|
COURSE:Hard
|
|
LEVEL:7
|
|
BALLOON:7,7
|
|
SCOREINIT:630
|
|
SCOREDIFF:163
|
|
|
|
|
|
#START
|
|
|
|
|
|
300000000000000000300000000000000000300000000000,
|
|
000000300000000000000000400000000000400000100100,
|
|
100000100000100000100000000000200000000000500000,
|
|
000000000000000008000000000000100000100000100000,
|
|
100000000000200000100000000000200000000000500000,
|
|
000000000000000000000008000000000000000000100100,
|
|
100000100000100000100000000000000000000000200200,
|
|
200000200000200000200000000000000000000000100100,
|
|
100000100000100000100000000000200000000000500000,
|
|
000000000000000000000008000000000000000000100100,
|
|
100000100000100000100000000000200000000000500000,
|
|
000000000000000008000000000000100000100000100000,
|
|
100000000000200000100000000000200000000000500000,
|
|
000000000000000000000008000000000000000000100100,
|
|
100000100000100000100000000000000000000000200200,
|
|
200000200000200000200000000000100000100000100000,
|
|
100000200000200000100000000000200000200000100000,
|
|
000000100100500000000000000000000000000000000000,
|
|
000000000000000000000008000000000000000000000000,
|
|
100000000100100000200000000000100000200000200000,
|
|
100000000000200000200000000000100000200000200000,
|
|
100000000100100000200000000000100000200000200000,
|
|
100000000000200000200000000000100000200000200000,
|
|
100000100100100000100000000000100100100000100000,
|
|
000000200200200000200000000000200000200000500000,
|
|
000000000000000000000000000000000000000000000000,
|
|
000000000000000000000000000000000000000000000008,
|
|
000000000000000000000000000000000000000000000000,
|
|
700000000000000000000000800000000000000000000000,
|
|
|
|
#GOGOSTART
|
|
100100000100000100000100000100100000100100000100,
|
|
000100100000100100000100000100000100100000100100,
|
|
100100000100000100000100000100100000100100000100,
|
|
000100100000100100000100000100000100100000100100,
|
|
100100000100000100000100000100100000200200000100,
|
|
000100100000200200000100000100000100100000200200,
|
|
100100000100000100000100000100100000200200000100,
|
|
000100100000200200000100000100000100100000200200,
|
|
|
|
#GOGOEND
|
|
100000000000000000100000000000000000100000000000,
|
|
000000100000000000000000200000000000200000000000,
|
|
300000000000000000300000000000000000300000000000,
|
|
000000300000000000000000400000000000400000100100,
|
|
100000100000100000100000000000200000000000500000,
|
|
000000000000000008000000000000100000200000200000,
|
|
100000000000200000100000000000200000000000500000,
|
|
000000000000000000000008000000000000000000100100,
|
|
100000100000100000100000000000000000000000200200,
|
|
200000200000200000200000000000000000000000100100,
|
|
100000100000100000100000000000200000000000500000,
|
|
000000000000000000000008000000000000000000100100,
|
|
100000100000100000100000000000200000000000500000,
|
|
000000000000000008000000000000100000200000200000,
|
|
100000000000200000100000000000200000000000500000,
|
|
000000000000000000000008000000000000000000100100,
|
|
100000100000100000100000000000000000000000200200,
|
|
200000200000200000200000000000100000100000100000,
|
|
100000200000200000100000000000200000200000100000,
|
|
000000100100500000000000000000000000000000000000,
|
|
000000000000000000000008000000000000000000000000,
|
|
100000000100100000200000000000100000200000200000,
|
|
100000000000200000200000000000100000200000200000,
|
|
100000000100100000200000000000100000200000200000,
|
|
100000000000200000200000000000100000200000200000,
|
|
100000100100100000100000000000100100100000100000,
|
|
000000200200200000200000000000200000200000500000,
|
|
000000000000000000000000000000000000000000000000,
|
|
000000000000000000000000000000000000000000000008,
|
|
000000000000000000000000000000000000000000000000,
|
|
700000000000000000000000800000000000000000000000,
|
|
|
|
#GOGOSTART
|
|
100100000100000100000100000100100000100100000100,
|
|
000100100000100100000100000100000100100000100100,
|
|
100100000100000100000100000100100000100100000100,
|
|
000100100000100100000100000100000100100000100100,
|
|
100100000100000100000100000100100000200200000100,
|
|
000100100000200200000100000100000100100000200200,
|
|
100100000100000100000100000100100000200200000100,
|
|
000100100000200200000100000100000100100000200200,
|
|
|
|
#GOGOEND
|
|
100000000000000000000000000000000000000000000000,
|
|
|
|
|
|
#END
|
|
|