Add Traditional Chinese title (1276 charts) and subtitle (900 charts) header fields. Header additions only; no chart data changed. Co-Authored-By: Claude Opus 5 <noreply@anthropic.com>
1499 lines
16 KiB
Plaintext
1499 lines
16 KiB
Plaintext
//TJADB Project
|
|
TITLE:[Sou-uchi] Brave Sword, Braver Soul
|
|
TITLEJA:【双打】 Brave Sword, Braver Soul
|
|
TITLEKO:【SouUchi】 Brave sword, Braver soul
|
|
TITLEZH:【双打】 Brave Sword, Braver Soul
|
|
TITLEZH_TW:【雙打】 Brave Sword, Braver Soul
|
|
SUBTITLE:--Yoshihito Yano/SOULCALIBUR Ⅱ
|
|
SUBTITLEJA:「ソウルキャリバーII」より
|
|
SUBTITLEZH_TW:--來自「劍魂II」
|
|
BPM:150
|
|
WAVE:Brave Sword Braver Soul.ogg
|
|
OFFSET:-7.480
|
|
DEMOSTART:51.480
|
|
|
|
//shinuchi: -/-/-/-/2960
|
|
|
|
COURSE:Edit
|
|
LEVEL:8
|
|
|
|
STYLE:SINGLE
|
|
BALLOON:
|
|
SCOREINIT:930,3420
|
|
SCOREDIFF:290
|
|
|
|
#START
|
|
0,
|
|
3000003000201011,
|
|
10210210,
|
|
30030210,
|
|
30030022,
|
|
|
|
1011101000101110,
|
|
11011022,
|
|
30201021,
|
|
200000100000100000000000500000000000000008000000, //9
|
|
|
|
3250,
|
|
000000000000000000000000000000000000000008000000,
|
|
30000110,
|
|
100000200000100000000000500000000000000008000000,
|
|
|
|
30004440,
|
|
11011020,
|
|
21211030,
|
|
2114, //17
|
|
|
|
40202011,
|
|
10202011,
|
|
22202011,
|
|
#BPMCHANGE 149
|
|
22104000,
|
|
|
|
20112010,
|
|
#BPMCHANGE 150
|
|
2000101020111010,
|
|
#BPMCHANGE 151
|
|
000000000000000000000000500000000000000008000000,
|
|
#BPMCHANGE 150
|
|
4400,
|
|
|
|
000000000000000000000000500000000000000008000000,
|
|
11111111,
|
|
30001122, //28
|
|
|
|
#GOGOSTART
|
|
11011101,
|
|
11011122,
|
|
10101101,
|
|
11010000,
|
|
|
|
30200220,
|
|
02200222,
|
|
1111,
|
|
30030030, //36
|
|
|
|
30200220,
|
|
02200222,
|
|
02020222,
|
|
000000200000000002000001000001000002000002000000,
|
|
|
|
1000000010000011,
|
|
1033,
|
|
4334,
|
|
|
|
30030030,
|
|
0030000010111000,
|
|
10120120,
|
|
#BPMCHANGE 150.68
|
|
12002200, //47
|
|
#GOGOEND
|
|
|
|
#BPMCHANGE 149.32
|
|
12121120,
|
|
#BPMCHANGE 150
|
|
10103300,
|
|
12121122,
|
|
12100000,
|
|
|
|
12121120,
|
|
10103300,
|
|
12121122,
|
|
12120000, //55
|
|
|
|
3500,
|
|
000000000000000008000000300000300000000000000000,
|
|
000222222222,
|
|
111111111100,
|
|
|
|
33000000,
|
|
12121122,
|
|
#BPMCHANGE 150.96
|
|
10210210,
|
|
00121210,
|
|
3,
|
|
0, //65
|
|
#END
|
|
|
|
STYLE:DOUBLE
|
|
BALLOON:
|
|
SCOREINIT:930,3420
|
|
SCOREDIFF:290
|
|
|
|
#START P1
|
|
0,
|
|
3000003000201011,
|
|
10210210,
|
|
30030210,
|
|
30030022,
|
|
|
|
1011101000101110,
|
|
11011022,
|
|
30201021,
|
|
200000100000100000000000500000000000000008000000, //9
|
|
|
|
3250,
|
|
000000000000000000000000000000000000000008000000,
|
|
30000110,
|
|
100000200000100000000000500000000000000008000000,
|
|
|
|
30004440,
|
|
11011020,
|
|
21211030,
|
|
2114, //17
|
|
|
|
40202011,
|
|
10202011,
|
|
22202011,
|
|
#BPMCHANGE 149
|
|
22104000,
|
|
|
|
20112010,
|
|
#BPMCHANGE 150
|
|
2000101020111010,
|
|
#BPMCHANGE 151
|
|
000000000000000000000000500000000000000008000000,
|
|
#BPMCHANGE 150
|
|
4400,
|
|
|
|
000000000000000000000000500000000000000008000000,
|
|
11111111,
|
|
30001122, //28
|
|
|
|
#GOGOSTART
|
|
11011101,
|
|
11011122,
|
|
10101101,
|
|
11010000,
|
|
|
|
30200220,
|
|
02200222,
|
|
1111,
|
|
30030030, //36
|
|
|
|
30200220,
|
|
02200222,
|
|
02020222,
|
|
000000200000000002000001000001000002000002000000,
|
|
|
|
1000000010000011,
|
|
1033,
|
|
4334,
|
|
|
|
30030030,
|
|
0030000010111000,
|
|
10120120,
|
|
#BPMCHANGE 150.68
|
|
12002200, //47
|
|
#GOGOEND
|
|
|
|
#BPMCHANGE 149.32
|
|
12121120,
|
|
#BPMCHANGE 150
|
|
10103300,
|
|
12121122,
|
|
12100000,
|
|
|
|
12121120,
|
|
10103300,
|
|
12121122,
|
|
12120000, //55
|
|
|
|
3500,
|
|
000000000000000008000000300000300000000000000000,
|
|
000222222222,
|
|
111111111100,
|
|
|
|
33000000,
|
|
12121122,
|
|
#BPMCHANGE 150.96
|
|
10210210,
|
|
00121210,
|
|
3,
|
|
0, //65
|
|
#END
|
|
|
|
BALLOON:
|
|
SCOREINIT:930,3420
|
|
SCOREDIFF:290
|
|
|
|
#START P2
|
|
0,
|
|
30030200,
|
|
3000003000201011,
|
|
1000201000201011,
|
|
100000100000100100100000500000000000000008000000,
|
|
|
|
30004440,
|
|
11011020,
|
|
11211030,
|
|
200000000000100000000000500000000000000008000000, //9
|
|
|
|
30000110,
|
|
12101011,
|
|
30205000,
|
|
000000000000000000000000000000000000000008000000,
|
|
|
|
1011101000101110,
|
|
11011022,
|
|
30201021,
|
|
2114, //17
|
|
|
|
40111020,
|
|
20111020,
|
|
20112220,
|
|
#BPMCHANGE 149
|
|
22104000,
|
|
|
|
30102011,
|
|
#BPMCHANGE 150
|
|
2000100020111010,
|
|
#BPMCHANGE 151
|
|
2200,
|
|
#BPMCHANGE 150
|
|
000000000000000000000000500000000000000008000000,
|
|
|
|
4400,
|
|
11111111,
|
|
3, //28
|
|
|
|
#GOGOSTART
|
|
30200220,
|
|
02200222,
|
|
02020222,
|
|
02021122,
|
|
|
|
11011101,
|
|
11011122,
|
|
1111,
|
|
30001122, //36
|
|
|
|
1000200010000011,
|
|
1000000010201011,
|
|
1111,
|
|
500000000000000008000000000000000000000000000000,
|
|
|
|
30200220,
|
|
02203030,
|
|
40303022,
|
|
10120120,
|
|
|
|
1020000010111000,
|
|
30030030,
|
|
#BPMCHANGE 150.68
|
|
03002200, //47
|
|
#GOGOEND
|
|
|
|
#BPMCHANGE 149.32
|
|
12121122,
|
|
#BPMCHANGE 150
|
|
12100000,
|
|
12121120,
|
|
10103300,
|
|
|
|
12121122,
|
|
12120000,
|
|
12121120,
|
|
10103300, //55
|
|
|
|
000222222222,
|
|
111111111100,
|
|
33500000,
|
|
000000000000000008000000300000300000000000000000,
|
|
|
|
12121122,
|
|
00003300,
|
|
#BPMCHANGE 150.96
|
|
10210210,
|
|
00121210,
|
|
3,
|
|
0, //65
|
|
#END
|
|
|
|
|
|
COURSE:Oni
|
|
LEVEL:7
|
|
|
|
STYLE:SINGLE
|
|
BALLOON:10
|
|
SCOREINIT:3460
|
|
SCOREDIFF:0
|
|
|
|
#START
|
|
0,
|
|
3000003000201011,
|
|
10230000,
|
|
0000003000201011,
|
|
1002,
|
|
|
|
1011101000001010,
|
|
11011022,
|
|
30201011,
|
|
100000100000100000000000500000000000000008000000, //9
|
|
|
|
37,
|
|
0008,
|
|
32220110,
|
|
100000200000100000000000500000000000000008000000,
|
|
|
|
00004440,
|
|
11211020,
|
|
11111011,
|
|
4114, //17
|
|
|
|
40202011,
|
|
10202011,
|
|
10222110,
|
|
#BPMCHANGE 149
|
|
22104000,
|
|
|
|
20111010,
|
|
#BPMCHANGE 150
|
|
20111000,
|
|
#BPMCHANGE 151
|
|
100000000000100000000000500000000000000008000000,
|
|
#BPMCHANGE 150
|
|
4400,
|
|
|
|
100000000000100000000000500000000000000008000000,
|
|
11111121,
|
|
30001122, //28
|
|
|
|
#GOGOSTART
|
|
3000001110000011,
|
|
1000001110000000,
|
|
1111,
|
|
33000000,
|
|
|
|
02200220,
|
|
0022200000222220,
|
|
02020210,
|
|
30001122, //36
|
|
|
|
3000001110000011,
|
|
1000000011111000,
|
|
02020222,
|
|
500000000000000008000000100000000000000000000000,
|
|
|
|
0022200000222000,
|
|
0022222030003000,
|
|
4333,
|
|
|
|
10110110,
|
|
1010001030302220,
|
|
30030030,
|
|
#BPMCHANGE 150.68
|
|
03004400, //47
|
|
#GOGOEND
|
|
|
|
#BPMCHANGE 149.32
|
|
00001122,
|
|
#BPMCHANGE 150
|
|
12100000,
|
|
12121100,
|
|
00003300,
|
|
|
|
00001122,
|
|
12120000,
|
|
00001122,
|
|
1020102000002222, //55
|
|
|
|
0,
|
|
00003300,
|
|
300300202020202020202020,
|
|
100010001000100010001000000000000000200200200200,
|
|
|
|
00001100,
|
|
1122102030302020,
|
|
#BPMCHANGE 150.96
|
|
3022203000003000,
|
|
0000112200000020,
|
|
3,
|
|
0, //65
|
|
#END
|
|
|
|
STYLE:DOUBLE
|
|
BALLOON:10
|
|
SCOREINIT:3460
|
|
SCOREDIFF:0
|
|
|
|
#START P1
|
|
0,
|
|
3000003000201011,
|
|
10230000,
|
|
0000003000201011,
|
|
1002,
|
|
|
|
1011101000001010,
|
|
11011022,
|
|
30201011,
|
|
100000100000100000000000500000000000000008000000, //9
|
|
|
|
37,
|
|
0008,
|
|
32220110,
|
|
100000200000100000000000500000000000000008000000,
|
|
|
|
00004440,
|
|
11211020,
|
|
11111011,
|
|
4114, //17
|
|
|
|
40202011,
|
|
10202011,
|
|
10222110,
|
|
#BPMCHANGE 149
|
|
22104000,
|
|
|
|
20111010,
|
|
#BPMCHANGE 150
|
|
20111000,
|
|
#BPMCHANGE 151
|
|
100000000000100000000000500000000000000008000000,
|
|
#BPMCHANGE 150
|
|
4400,
|
|
|
|
100000000000100000000000500000000000000008000000,
|
|
11111121,
|
|
30001122, //28
|
|
|
|
#GOGOSTART
|
|
3000001110000011,
|
|
1000001110000000,
|
|
1111,
|
|
33000000,
|
|
|
|
02200220,
|
|
0022200000222220,
|
|
02020210,
|
|
30001122, //36
|
|
|
|
3000001110000011,
|
|
1000000011111000,
|
|
02020222,
|
|
500000000000000008000000100000000000000000000000,
|
|
|
|
0022200000222000,
|
|
0022222030003000,
|
|
4333,
|
|
|
|
10110110,
|
|
1010001030302220,
|
|
30030030,
|
|
#BPMCHANGE 150.68
|
|
03004400, //47
|
|
#GOGOEND
|
|
|
|
#BPMCHANGE 149.32
|
|
00001122,
|
|
#BPMCHANGE 150
|
|
12100000,
|
|
12121100,
|
|
00003300,
|
|
|
|
00001122,
|
|
12120000,
|
|
00001122,
|
|
1020102000002222, //55
|
|
|
|
0,
|
|
00003300,
|
|
300300202020202020202020,
|
|
100010001000100010001000000000000000200200200200,
|
|
|
|
00001100,
|
|
1122102030302020,
|
|
#BPMCHANGE 150.96
|
|
3022203000003000,
|
|
0000112200000020,
|
|
3,
|
|
0, //65
|
|
#END
|
|
|
|
BALLOON:10
|
|
SCOREINIT:3460
|
|
SCOREDIFF:0
|
|
|
|
#START P2
|
|
0,
|
|
30030000,
|
|
0000003000201011,
|
|
10230000,
|
|
000000100000100100100000500000000000000008000000,
|
|
|
|
00004440,
|
|
11211020,
|
|
11111010,
|
|
400000000000100000000000500000000000000008000000, //9
|
|
|
|
30220110,
|
|
1020100011101010,
|
|
37,
|
|
0008,
|
|
|
|
1011101000001010,
|
|
11011022,
|
|
30221010,
|
|
1114, //17
|
|
|
|
40111020,
|
|
20111020,
|
|
20111220,
|
|
#BPMCHANGE 149
|
|
22104000,
|
|
|
|
30102011,
|
|
#BPMCHANGE 150
|
|
1000100020222020,
|
|
#BPMCHANGE 151
|
|
4400,
|
|
#BPMCHANGE 150
|
|
100000000000100000000000500000000000000008000000,
|
|
|
|
4400,
|
|
11112111,
|
|
3, //28
|
|
|
|
#GOGOSTART
|
|
02200220,
|
|
0022200000222220,
|
|
02020222,
|
|
00021122,
|
|
|
|
3000001110000011,
|
|
1000001110000000,
|
|
1111,
|
|
30030030, //36
|
|
|
|
0022200000222000,
|
|
0022222000000011,
|
|
1111,
|
|
00001122,
|
|
|
|
3000001110000011,
|
|
1033,
|
|
40303022,
|
|
|
|
40040040,
|
|
04003300,
|
|
30230230,
|
|
#BPMCHANGE 150.68
|
|
23023300, //47
|
|
#GOGOEND
|
|
|
|
#BPMCHANGE 149.32
|
|
12121100,
|
|
#BPMCHANGE 150
|
|
00003300,
|
|
00001122,
|
|
12100000,
|
|
|
|
12121100,
|
|
0000000030302222,
|
|
12121100,
|
|
00003300, //55
|
|
|
|
300222222222,
|
|
100010001000100010001000000000000000200200200200,
|
|
0,
|
|
00003300,
|
|
|
|
3030112010102220,
|
|
00003300,
|
|
#BPMCHANGE 150.96
|
|
3000003022203000,
|
|
0000000011221000,
|
|
3,
|
|
0, //65
|
|
#END
|
|
|
|
|
|
COURSE:Hard
|
|
LEVEL:5
|
|
|
|
STYLE:SINGLE
|
|
BALLOON:6
|
|
SCOREINIT:4640
|
|
SCOREDIFF:0
|
|
|
|
#START
|
|
0,
|
|
30030211,
|
|
10230000,
|
|
00030211,
|
|
1,
|
|
|
|
1011101000000000,
|
|
11011020,
|
|
31011000,
|
|
400000000000000000000000500000000000000008000000, //9
|
|
|
|
3270,
|
|
0008,
|
|
30000110,
|
|
100000200000100000000000500000000000000008000000,
|
|
|
|
00004440,
|
|
11011020,
|
|
00200011,
|
|
0114, //17
|
|
|
|
40222000,
|
|
10222000,
|
|
10222000,
|
|
#BPMCHANGE 149
|
|
22004000,
|
|
|
|
20002011,
|
|
#BPMCHANGE 150
|
|
2000000020222000,
|
|
#BPMCHANGE 151
|
|
100000000000100000000000500000000000000008000000,
|
|
#BPMCHANGE 150
|
|
4400,
|
|
|
|
100000000000100000000000500000000000000008000000,
|
|
11111111,
|
|
30001110, //28
|
|
|
|
#GOGOSTART
|
|
30011001,
|
|
10011000,
|
|
11100000,
|
|
33000000,
|
|
|
|
0202,
|
|
0000200000222000,
|
|
00001110,
|
|
3011, //36
|
|
|
|
30011001,
|
|
10011000,
|
|
02020200,
|
|
500000000000000008000000000000000000000000000000,
|
|
|
|
0202,
|
|
02203030,
|
|
4333,
|
|
|
|
30100100,
|
|
10013300,
|
|
30030030,
|
|
#BPMCHANGE 150.68
|
|
03004400, //47
|
|
#GOGOEND
|
|
|
|
#BPMCHANGE 149.32
|
|
0,
|
|
#BPMCHANGE 150
|
|
12100000,
|
|
12121122,
|
|
00003300,
|
|
|
|
0,
|
|
12100022,
|
|
12121122,
|
|
00000022, //55
|
|
|
|
0,
|
|
00003300,
|
|
300300202020202020200000,
|
|
111111000000,
|
|
|
|
00001122,
|
|
12123322,
|
|
#BPMCHANGE 150.96
|
|
30230030,
|
|
00110012,
|
|
3,
|
|
0, //65
|
|
#END
|
|
|
|
STYLE:DOUBLE
|
|
BALLOON:6
|
|
SCOREINIT:4640
|
|
SCOREDIFF:0
|
|
|
|
#START P1
|
|
0,
|
|
30030211,
|
|
10230000,
|
|
00030211,
|
|
1,
|
|
|
|
1011101000000000,
|
|
11011020,
|
|
31011000,
|
|
400000000000000000000000500000000000000008000000, //9
|
|
|
|
3270,
|
|
0008,
|
|
30000110,
|
|
100000200000100000000000500000000000000008000000,
|
|
|
|
00004440,
|
|
11011020,
|
|
00200011,
|
|
0114, //17
|
|
|
|
40222000,
|
|
10222000,
|
|
10222000,
|
|
#BPMCHANGE 149
|
|
22004000,
|
|
|
|
20002011,
|
|
#BPMCHANGE 150
|
|
2000000020222000,
|
|
#BPMCHANGE 151
|
|
100000000000100000000000500000000000000008000000,
|
|
#BPMCHANGE 150
|
|
4400,
|
|
|
|
100000000000100000000000500000000000000008000000,
|
|
11111111,
|
|
30001110, //28
|
|
|
|
#GOGOSTART
|
|
30011001,
|
|
10011000,
|
|
11100000,
|
|
33000000,
|
|
|
|
0202,
|
|
0000200000222000,
|
|
00001110,
|
|
3011, //36
|
|
|
|
30011001,
|
|
10011000,
|
|
02020200,
|
|
500000000000000008000000000000000000000000000000,
|
|
|
|
0202,
|
|
02203030,
|
|
4333,
|
|
|
|
30100100,
|
|
10013300,
|
|
30030030,
|
|
#BPMCHANGE 150.68
|
|
03004400, //47
|
|
#GOGOEND
|
|
|
|
#BPMCHANGE 149.32
|
|
0,
|
|
#BPMCHANGE 150
|
|
12100000,
|
|
12121122,
|
|
00003300,
|
|
|
|
0,
|
|
12100022,
|
|
12121122,
|
|
00000022, //55
|
|
|
|
0,
|
|
00003300,
|
|
300300202020202020200000,
|
|
111111000000,
|
|
|
|
00001122,
|
|
12123322,
|
|
#BPMCHANGE 150.96
|
|
30230030,
|
|
00110012,
|
|
3,
|
|
0, //65
|
|
#END
|
|
|
|
BALLOON:6
|
|
SCOREINIT:4640
|
|
SCOREDIFF:0
|
|
|
|
#START P2
|
|
0,
|
|
30030000,
|
|
00030211,
|
|
10230000,
|
|
000000100000100000000000500000000000000008000000,
|
|
|
|
00004440,
|
|
11011020,
|
|
00200011,
|
|
000000100000100000000000500000000000000008000000, //9
|
|
|
|
30000110,
|
|
12101110,
|
|
3270,
|
|
0008,
|
|
|
|
1011101000000000,
|
|
11011020,
|
|
31011000,
|
|
4114, //17
|
|
|
|
40001022,
|
|
20001022,
|
|
20000110,
|
|
#BPMCHANGE 149
|
|
0140,
|
|
|
|
30112000,
|
|
#BPMCHANGE 150
|
|
20112000,
|
|
#BPMCHANGE 151
|
|
4400,
|
|
#BPMCHANGE 150
|
|
100000000000100000000000500000000000000008000000,
|
|
|
|
4400,
|
|
11111111,
|
|
3, //28
|
|
|
|
#GOGOSTART
|
|
0202,
|
|
0000200000222000,
|
|
00001110,
|
|
33001110,
|
|
|
|
30011001,
|
|
10011000,
|
|
11100000,
|
|
30030030, //36
|
|
|
|
0202,
|
|
0020200000222000,
|
|
1111,
|
|
00001110,
|
|
|
|
30011001,
|
|
10013030,
|
|
4334,
|
|
|
|
40040040,
|
|
04003300,
|
|
30100100,
|
|
#BPMCHANGE 150.68
|
|
10013300, //47
|
|
#GOGOEND
|
|
|
|
#BPMCHANGE 149.32
|
|
12121122,
|
|
#BPMCHANGE 150
|
|
00003300,
|
|
0,
|
|
12100000,
|
|
|
|
12121122,
|
|
00003300,
|
|
0,
|
|
12103300, //55
|
|
|
|
300222222200,
|
|
111111000000,
|
|
0,
|
|
00003300,
|
|
|
|
33121100,
|
|
00003300,
|
|
#BPMCHANGE 150.96
|
|
30030230,
|
|
00001210,
|
|
4,
|
|
0, //65
|
|
#END
|
|
|
|
|
|
COURSE:Normal
|
|
LEVEL:4
|
|
|
|
STYLE:SINGLE
|
|
BALLOON:
|
|
SCOREINIT:5830
|
|
SCOREDIFF:0
|
|
|
|
#START
|
|
0,
|
|
30030210,
|
|
10030000,
|
|
00030210,
|
|
1,
|
|
|
|
11100000,
|
|
11011020,
|
|
3211,
|
|
100000000000100000000000500000000000000008000000, //9
|
|
|
|
3210,
|
|
0,
|
|
30000110,
|
|
100000200000100000000000500000000000000008000000,
|
|
|
|
00004440,
|
|
11011020,
|
|
1111,
|
|
4114, //17
|
|
|
|
40222000,
|
|
00222000,
|
|
00222000,
|
|
#BPMCHANGE 149
|
|
0140,
|
|
|
|
3111,
|
|
#BPMCHANGE 150
|
|
2111,
|
|
#BPMCHANGE 151
|
|
000000000000000000000000500000000000000008000000,
|
|
#BPMCHANGE 150
|
|
4400,
|
|
|
|
000000000000000000000000500000000000000008000000,
|
|
11101110,
|
|
3, //28
|
|
|
|
#GOGOSTART
|
|
30011001,
|
|
10011000,
|
|
0,
|
|
33000000,
|
|
|
|
0202,
|
|
0202,
|
|
11101110,
|
|
3, //36
|
|
|
|
30011001,
|
|
10011100,
|
|
00001110,
|
|
500000000000000008000000000000000000000000000000,
|
|
|
|
0202,
|
|
0233,
|
|
4334,
|
|
|
|
30100100,
|
|
10003300,
|
|
30030030,
|
|
#BPMCHANGE 150.68
|
|
03004400, //47
|
|
#GOGOEND
|
|
|
|
#BPMCHANGE 149.32
|
|
0,
|
|
#BPMCHANGE 150
|
|
12100000,
|
|
0,
|
|
12100000,
|
|
|
|
11101120,
|
|
00003300,
|
|
11101120,
|
|
00003300, //55
|
|
|
|
0,
|
|
00003300,
|
|
33500000,
|
|
000000000000000000000008000000000000000000000000,
|
|
|
|
0202,
|
|
12103300,
|
|
#BPMCHANGE 150.96
|
|
30030030,
|
|
00110011,
|
|
3,
|
|
0, //65
|
|
#END
|
|
|
|
STYLE:DOUBLE
|
|
BALLOON:
|
|
SCOREINIT:5830
|
|
SCOREDIFF:0
|
|
|
|
#START P1
|
|
0,
|
|
30030210,
|
|
10030000,
|
|
00030210,
|
|
1,
|
|
|
|
11100000,
|
|
11011020,
|
|
3211,
|
|
100000000000100000000000500000000000000008000000, //9
|
|
|
|
3210,
|
|
0,
|
|
30000110,
|
|
100000200000100000000000500000000000000008000000,
|
|
|
|
00004440,
|
|
11011020,
|
|
1111,
|
|
4114, //17
|
|
|
|
40222000,
|
|
00222000,
|
|
00222000,
|
|
#BPMCHANGE 149
|
|
0140,
|
|
|
|
3111,
|
|
#BPMCHANGE 150
|
|
2111,
|
|
#BPMCHANGE 151
|
|
000000000000000000000000500000000000000008000000,
|
|
#BPMCHANGE 150
|
|
4400,
|
|
|
|
000000000000000000000000500000000000000008000000,
|
|
11101110,
|
|
3, //28
|
|
|
|
#GOGOSTART
|
|
30011001,
|
|
10011000,
|
|
0,
|
|
33000000,
|
|
|
|
0202,
|
|
0202,
|
|
11101110,
|
|
3, //36
|
|
|
|
30011001,
|
|
10011100,
|
|
00001110,
|
|
500000000000000008000000000000000000000000000000,
|
|
|
|
0202,
|
|
0233,
|
|
4334,
|
|
|
|
30100100,
|
|
10003300,
|
|
30030030,
|
|
#BPMCHANGE 150.68
|
|
03004400, //47
|
|
#GOGOEND
|
|
|
|
#BPMCHANGE 149.32
|
|
0,
|
|
#BPMCHANGE 150
|
|
12100000,
|
|
0,
|
|
12100000,
|
|
|
|
11101120,
|
|
00003300,
|
|
11101120,
|
|
00003300, //55
|
|
|
|
0,
|
|
00003300,
|
|
33500000,
|
|
000000000000000000000008000000000000000000000000,
|
|
|
|
0202,
|
|
12103300,
|
|
#BPMCHANGE 150.96
|
|
30030030,
|
|
00110011,
|
|
3,
|
|
0, //65
|
|
#END
|
|
|
|
BALLOON:
|
|
SCOREINIT:5830
|
|
SCOREDIFF:0
|
|
|
|
#START P2
|
|
0,
|
|
30030000,
|
|
00030210,
|
|
10030000,
|
|
000000100000100000000000500000000000000008000000,
|
|
|
|
00004440,
|
|
11011020,
|
|
1111,
|
|
400000000000100000000000500000000000000008000000, //9
|
|
|
|
30000110,
|
|
12101010,
|
|
3210,
|
|
0,
|
|
|
|
11100000,
|
|
11011020,
|
|
3211,
|
|
1114, //17
|
|
|
|
40000022,
|
|
20000022,
|
|
20000110,
|
|
#BPMCHANGE 149
|
|
22004000,
|
|
|
|
3121,
|
|
#BPMCHANGE 150
|
|
1121,
|
|
#BPMCHANGE 151
|
|
4400,
|
|
#BPMCHANGE 150
|
|
000000000000000000000000500000000000000008000000,
|
|
|
|
4400,
|
|
11101110,
|
|
3, //28
|
|
|
|
#GOGOSTART
|
|
0202,
|
|
0202,
|
|
11101110,
|
|
00001110,
|
|
|
|
30011001,
|
|
10011000,
|
|
0,
|
|
30030030, //36
|
|
|
|
0202,
|
|
0202,
|
|
11100000,
|
|
0,
|
|
|
|
30011001,
|
|
1033,
|
|
4334,
|
|
|
|
30030030,
|
|
03003300,
|
|
30100100,
|
|
#BPMCHANGE 150.68
|
|
10003300, //47
|
|
#GOGOEND
|
|
|
|
#BPMCHANGE 149.32
|
|
11101120,
|
|
#BPMCHANGE 150
|
|
00003300,
|
|
11101120,
|
|
00003300,
|
|
|
|
0,
|
|
12100022,
|
|
0,
|
|
12103300, //55
|
|
|
|
3500,
|
|
000000000000000000000008000000000000000000000000,
|
|
0,
|
|
00003300,
|
|
|
|
33001100,
|
|
00003300,
|
|
#BPMCHANGE 150.96
|
|
30030030,
|
|
00001100,
|
|
3,
|
|
0, //65
|
|
#END
|
|
|
|
|
|
COURSE:Easy
|
|
LEVEL:4
|
|
|
|
STYLE:SINGLE
|
|
BALLOON:
|
|
SCOREINIT:7620
|
|
SCOREDIFF:0
|
|
|
|
#START
|
|
0,
|
|
30030010,
|
|
10030000,
|
|
00030010,
|
|
0,
|
|
|
|
11100000,
|
|
1110,
|
|
3210,
|
|
0, //9
|
|
|
|
3210,
|
|
01,
|
|
0011,
|
|
1110,
|
|
|
|
0044,
|
|
1112,
|
|
0001,
|
|
4110, //17
|
|
|
|
4220,
|
|
0220,
|
|
0221,
|
|
#BPMCHANGE 149
|
|
04,
|
|
|
|
3111,
|
|
#BPMCHANGE 150
|
|
1120,
|
|
#BPMCHANGE 151
|
|
000000000000000000000000500000000000000008000000,
|
|
#BPMCHANGE 150
|
|
4400,
|
|
|
|
000000000000000000000000500000000000000008000000,
|
|
1111,
|
|
3, //28
|
|
|
|
#GOGOSTART
|
|
30011001,
|
|
10011010,
|
|
0,
|
|
33002000,
|
|
|
|
0,
|
|
0,
|
|
1111,
|
|
3, //36
|
|
|
|
31,
|
|
1011,
|
|
0011,
|
|
500000000000000008000000000000000000000000000000,
|
|
|
|
00010001,
|
|
0033,
|
|
4333,
|
|
|
|
3,
|
|
00003300,
|
|
30030030,
|
|
#BPMCHANGE 150.68
|
|
03003300, //47
|
|
#GOGOEND
|
|
|
|
#BPMCHANGE 149.32
|
|
0,
|
|
#BPMCHANGE 150
|
|
1100,
|
|
0,
|
|
1100,
|
|
|
|
1112,
|
|
00003300,
|
|
1112,
|
|
00003300, //55
|
|
|
|
3,
|
|
00003300,
|
|
0500,
|
|
000000000000000000000008000000000000000000000000,
|
|
|
|
33000000,
|
|
11103300,
|
|
#BPMCHANGE 150.96
|
|
30030030,
|
|
0111,
|
|
3,
|
|
0, //65
|
|
#END
|
|
|
|
STYLE:DOUBLE
|
|
BALLOON:
|
|
SCOREINIT:7620
|
|
SCOREDIFF:0
|
|
|
|
#START P1
|
|
0,
|
|
30030010,
|
|
10030000,
|
|
00030010,
|
|
0,
|
|
|
|
11100000,
|
|
1110,
|
|
3210,
|
|
0, //9
|
|
|
|
3210,
|
|
01,
|
|
0011,
|
|
1110,
|
|
|
|
0044,
|
|
1112,
|
|
0001,
|
|
4110, //17
|
|
|
|
4220,
|
|
0220,
|
|
0221,
|
|
#BPMCHANGE 149
|
|
04,
|
|
|
|
3111,
|
|
#BPMCHANGE 150
|
|
1120,
|
|
#BPMCHANGE 151
|
|
000000000000000000000000500000000000000008000000,
|
|
#BPMCHANGE 150
|
|
4400,
|
|
|
|
000000000000000000000000500000000000000008000000,
|
|
1111,
|
|
3, //28
|
|
|
|
#GOGOSTART
|
|
30011001,
|
|
10011010,
|
|
0,
|
|
33002000,
|
|
|
|
0,
|
|
0,
|
|
1111,
|
|
3, //36
|
|
|
|
31,
|
|
1011,
|
|
0011,
|
|
500000000000000008000000000000000000000000000000,
|
|
|
|
00010001,
|
|
0033,
|
|
4333,
|
|
|
|
3,
|
|
00003300,
|
|
30030030,
|
|
#BPMCHANGE 150.68
|
|
03003300, //47
|
|
#GOGOEND
|
|
|
|
#BPMCHANGE 149.32
|
|
0,
|
|
#BPMCHANGE 150
|
|
1100,
|
|
0,
|
|
1100,
|
|
|
|
1112,
|
|
00003300,
|
|
1112,
|
|
00003300, //55
|
|
|
|
3,
|
|
00003300,
|
|
0500,
|
|
000000000000000000000008000000000000000000000000,
|
|
|
|
33000000,
|
|
11103300,
|
|
#BPMCHANGE 150.96
|
|
30030030,
|
|
0111,
|
|
3,
|
|
0, //65
|
|
#END
|
|
|
|
BALLOON:
|
|
SCOREINIT:7620
|
|
SCOREDIFF:0
|
|
|
|
#START P2
|
|
0,
|
|
30030000,
|
|
00030010,
|
|
10030000,
|
|
11101000,
|
|
|
|
0044,
|
|
1110,
|
|
0001,
|
|
400000000000100000000000500000000000000008000000, //9
|
|
|
|
0011,
|
|
1110,
|
|
3210,
|
|
01,
|
|
|
|
11100000,
|
|
1112,
|
|
3210,
|
|
01, //17
|
|
|
|
4002,
|
|
2002,
|
|
2,
|
|
#BPMCHANGE 149
|
|
1140,
|
|
|
|
3111,
|
|
#BPMCHANGE 150
|
|
1120,
|
|
#BPMCHANGE 151
|
|
4400,
|
|
#BPMCHANGE 150
|
|
000000000000000000000000500000000000000008000000,
|
|
|
|
4400,
|
|
1111,
|
|
3, //28
|
|
|
|
#GOGOSTART
|
|
0,
|
|
0,
|
|
11101110,
|
|
0,
|
|
|
|
30011001,
|
|
10011010,
|
|
0,
|
|
30030030, //36
|
|
|
|
00010001,
|
|
00010000,
|
|
1100,
|
|
0,
|
|
|
|
31,
|
|
1033,
|
|
4333,
|
|
|
|
30030030,
|
|
03003300,
|
|
3,
|
|
#BPMCHANGE 150.68
|
|
00003300, //47
|
|
#GOGOEND
|
|
|
|
#BPMCHANGE 149.32
|
|
1112,
|
|
#BPMCHANGE 150
|
|
00003300,
|
|
1112,
|
|
00003300,
|
|
|
|
0,
|
|
1100,
|
|
0,
|
|
1100, //55
|
|
|
|
0500,
|
|
000000000000000000000008000000000000000000000000,
|
|
33000000,
|
|
00003300,
|
|
|
|
00001110,
|
|
00003300,
|
|
#BPMCHANGE 150.96
|
|
30030030,
|
|
01,
|
|
3,
|
|
0, //65
|
|
#END |