Files
ESE/07 Game Music/DESERT STORM/DESERT STORM.tja
T
2023-01-17 00:45:18 -05:00

342 lines
12 KiB
Plaintext

//TJADB Project
TITLE:DESERT STORM
TITLEJA:DESERT STORM
SUBTITLE:--Shinji Hosoe (Sampling Masters) / F/A
SUBTITLEJA:「F/A」より
BPM:138.060
WAVE:DESERT STORM.ogg
OFFSET:-2.017
DEMOSTART:22.877
COURSE:Oni
LEVEL:8
BALLOON:5
SCOREINIT:550
SCOREDIFF:150
#START
300000200100000100100000400000100100000100100000,
300000200100000100100000400000100200000200200000,
300000200100000100100000400000100100000100100000,
#BPMCHANGE 137.83
300000200100000100100000300000000000000000000000,
#BPMCHANGE 138.07
#GOGOSTART
300000200000100100000100200200000100100000200000,
100100200000100000100100200200000100100000200100,
100000200000100100000100200200000100100000200000,
100100200000100000100100200000100100000100200000,
300000200000100100000100200200000100100000200000,
100100200000100000100100200200000100100000200100,
100000200000100100000100200200000100100000200000,
#GOGOEND
100000000000000000000000000000000000000000000000,
100000000100200000100200100000000100200000100000,
100000000100200000000200100100000100200000200000,
100000200200000100100000200000100100000100100000,
100000200200000100100000200000100100000100100000,
100000100100200000100200100100000100200000100000,
100000100100200000100200100100000100200000200000,
100000200200000100100000200000100100000100100000,
100000200200000100100000200000100100000100100000,
100000000100000000100000102020200100000000100000,
100000000100000000100000102020200100000000100000,
100000000100000000100000102020200100000000100000,
100000000100000000100000102020200200100200100200,
100000000200000000200000200000200200000200200000,
100000200100000000100000200000200200000200200000,
100000200200000200200000200000200200000200200000,
100000200100000100200000200000000200000200200000,
300000000000100000000000100000000000100000200000,
100000000100000000100000100000000000100000400000,
300000000000100000000000100000000000100000200000,
100000000100000000100000100000000000400000000000,
#GOGOSTART
100100200000200000000200100200000100200000200200,
100100000100200000100100200100000100200000300000,
100100200000200000000200100200000100200000200200,
100100000100200000100100200100000000200200200200,
100100200000200100000200100200000100200000200200,
100100000100200000100100200000000100200000300000,
100100200000200100000200100200000100200000200200,
100100000100200000200100100000000100200200200200,
100100200000200100000200100200000100200000200200,
100100200100000100200100100000200200100100200000,
300000000300000000300000000300000000300000300000,
#BPMCHANGE 138.3
100100200100000000300000000300000000300000300000,
#GOGOEND
#BPMCHANGE 138.07
300000200100000100100000400000100100000100100000,
300000200100000100100000400000100200000200200000,
300000200100000100100000400000100100000100100000,
#BPMCHANGE 137.83
300000200100000100100000700000000000800000000000,
#BPMCHANGE 138.07
#GOGOSTART
300000200000100100000100200200000100100000200000,
100100200000100000100100200200000100100000200100,
100000200000100100000100200200000100100000200000,
100100200000100000100100200000100100000100200000,
300000200000100100000100200200000100100000200000,
100100200000100000100100200200000100100000200100,
100000200000100100000100200200000100100000200000,
#GOGOEND
300000000000000000000000000000000000000000000000,
#END
COURSE:Hard
LEVEL:6
BALLOON:3
SCOREINIT:760
SCOREDIFF:235
#START
300000100100000000000000400000200200000000000000,
300000100100000000000000400000200200000000000000,
300000100100000000000000400000200200000000000000,
#BPMCHANGE 137.83
300000100100000100100000100000000000000000000000,
#GOGOSTART
#BPMCHANGE 138.07
100000000000100100000000100000000000100100000000,
100000000000100100000000100000100000100100000000,
100000000000100100000000100000000000100100000000,
100000000000100100000000100000100000100100000000,
100000000000100100000000100000000000100100000000,
100000000000100100000000100000100000200200000000,
100000000000100100000000100000000000100100000000,
#GOGOEND
100000000000000000000000000000000000000000000000,
100000000100000000200000100000000100000000200000,
100000000100000000200000100000000100000000000000,
100000000000100100000000100000100000100100000000,
100000000000100100000000100000100000100000000000,
100000000100000000200000100000000100000000200000,
100000000100000000200000100000000100000000000000,
100000000000100100000000100000100000100100000000,
100000000000100100000000100000100000100000000000,
100000000100000000100000100000000000000000000000,
100000000200000000100000100000000000000000000000,
100000000100000000100000100000000000000000000000,
100000000200000000100000100000000000000000000000,
100000000200000000100000100000000100000000000000,
100000000200000000100000100000000200000000000000,
100000000200000000100000100000000100000000000000,
100000000200000000100000100000000200000000000000,
300000000000100000000000100000000000100000200000,
100000000100000000100000100000000000000000000000,
300000000000100000000000100000000000100000200000,
100000000100000000100000100000000000000000000000,
#GOGOSTART
300000000000100000000000100000000000100000200000,
100000000100000000100000100000000000200000000000,
300000000000100000000000100000000000100000200000,
100000000100000000100000100000000000000000000000,
300000000000100000000000100000000000100000200000,
100000000100000000100000100000000000000000000000,
300000000000100000000000100000000000100000200000,
100000000100000000100000100000000000000000000000,
300000000000100000000000100000000000100000200000,
100000000100000000100000100000000000000000000000,
300000000300000000300000000300000000300000300000,
#BPMCHANGE 138.3
600000000000000000000000000000000080000000000000,
#GOGOEND
#BPMCHANGE 138.07
300000000000000000000000400000000000000000000000,
300000000000000000000000400000000000000000000000,
300000000000000000000000400000000000000000000000,
#BPMCHANGE 137.83
300000000000000000000000700000000800000000000000,
#BPMCHANGE 138.07
#GOGOSTART
100000100000100100000000100000100000100100000000,
100000100000100100000000100000100000200200000000,
100000100000100100000000100000100000100100000000,
100000100000100100000000100000100000200200000000,
100000100000100100000000100000100000100100000000,
100000100000100100000000100000100000200200000000,
100000100000100100000000100000100000100100000000,
#GOGOEND
300000000000000000000000000000000000000000000000,
#END
COURSE:Normal
LEVEL:5
BALLOON:3
SCOREINIT:690
SCOREDIFF:245
#START
300000000000000000000000300000000000000000000000,
300000000000000000000000400000000000000000000000,
300000000000000000000000300000000000000000000000,
#BPMCHANGE 137.83
300000000000000000000000000000000000000000000000,
#BPMCHANGE 138.07
#GOGOSTART
300000000000100000000000100000000000100000000000,
300000000000100000000000100000100000100000000000,
300000000000100000000000100000000000100000000000,
300000000000100000000000100000100000100000000000,
300000000000100000000000100000000000100000000000,
300000000000100000000000100000100000100000000000,
300000000000100000000000100000000000100000000000,
#GOGOEND
100000000000000000000000000000000000000000000000,
300000000000000000100000100000000000000000000000,
300000000000000000100000100000000000000000000000,
100000000000100000000000100000000000100000000000,
100000200000100000000000100000200000100000000000,
300000000000000000100000100000000000000000000000,
300000000000000000100000100000000000000000000000,
100000000000100000000000100000000000100000000000,
100000200000100000000000100000200000100000000000,
100000000000000000000000200000000100000000000000,
100000000000000000000000200000000100000000000000,
100000000000000000000000200000000100000000000000,
100000000000000000000000200000000100000000000000,
100000000000000000000000100000000100000000000000,
100000000000000000000000100000000100000000000000,
100000000000000000000000100000000100000000000000,
100000000000000000000000100000000100000000000000,
300000000000100000000000100000000000100000000000,
100000000000000000100000100000000000000000000000,
300000000000100000000000100000000000100000000000,
100000000000000000100000100000000000000000000000,
#GOGOSTART
300000000000300000000000300000000000300000000000,
400000000000000000400000400000000000000000000000,
300000000000300000000000300000000000300000000000,
400000000000000000400000400000000000000000000000,
300000000000300000000000300000000000300000000000,
300000000000000000400000400000000000000000000000,
300000000000300000000000300000000000300000000000,
300000000000000000400000400000000000000000000000,
300000000000300000000000300000000000300000000000,
400000000000000000400000400000000000000000000000,
300000000000000000300000000000000000300000000000,
#BPMCHANGE 138.3
600000000000000000000000000000800000000000000000,
#BPMCHANGE 138.07
#GOGOEND
300000000000000000000000000000000000000000000000,
300000000000000000000000000000000000000000000000,
300000000000000000000000300000000000000000000000,
#BPMCHANGE 137.83
300000000000000000000000700000000000800000000000,
#BPMCHANGE 138.07
#GOGOSTART
300000000000100000000000100000000000100000000000,
300000000000100000000000100000100000100000000000,
300000000000100000000000100000000000100000000000,
300000000000100000000000100000100000100000000000,
300000000000100000000000100000000000100000000000,
300000000000100000000000100000100000100000000000,
300000000000100000000000100000000000100000000000,
#GOGOEND
300000000000000000000000000000000000000000000000,
#END
COURSE:Easy
LEVEL:4
BALLOON:3
SCOREINIT:530
SCOREDIFF:218
#START
300000000000000000000000300000000000000000000000,
300000000000000000000000400000000000000000000000,
300000000000000000000000300000000000000000000000,
#BPMCHANGE 137.83
300000000000000000000000000000000000000000000000,
#BPMCHANGE 138.07
#GOGOSTART
300000000000000000000000100000000000100000000000,
300000000000000000000000100000000000100000000000,
300000000000000000000000100000000000100000000000,
300000000000000000000000100000000000100000000000,
300000000000000000000000100000000000200000000000,
300000000000000000000000100000000000200000000000,
300000000000000000000000100000000000200000000000,
#GOGOEND
100000000000000000000000000000000000000000000000,
300000000000000000100000100000000000000000000000,
300000000000000000100000100000000000000000000000,
100000000000000000000000100000000000100000000000,
100000000000000000000000100000000000100000000000,
300000000000000000100000100000000000000000000000,
300000000000000000100000100000000000000000000000,
100000000000000000000000100000000000100000000000,
100000000000000000000000100000000000100000000000,
100000000000000000000000200000000000000000000000,
100000000000000000000000200000000000000000000000,
100000000000000000000000200000000000000000000000,
100000000000000000000000200000000000000000000000,
100000000000000000000000100000000100000000000000,
100000000000000000000000100000000000000000000000,
100000000000000000000000100000000100000000000000,
100000000000000000000000100000000000000000000000,
300000000000100000000000100000000000000000000000,
100000000000000000000000100000000000000000000000,
300000000000100000000000100000000000000000000000,
100000000000000000000000100000000000000000000000,
#GOGOSTART
300000000000300000000000300000000000000000000000,
400000000400000000000000400000000000000000000000,
300000000000300000000000300000000000000000000000,
400000000400000000000000400000000000000000000000,
300000000000300000000000300000000000000000000000,
300000000300000000000000400000000000000000000000,
300000000000300000000000300000000000000000000000,
300000000300000000000000400000000000000000000000,
300000000000300000000000300000000000000000000000,
400000000400000000000000400000000000000000000000,
300000000000000000300000000000000000000000000000,
#BPMCHANGE 138.3
600000000000000000000000000800000000000000000000,
#BPMCHANGE 138.07
#GOGOEND
300000000000000000000000000000000000000000000000,
300000000000000000000000000000000000000000000000,
300000000000000000000000300000000000000000000000,
#BPMCHANGE 137.83
300000000000000000000000700000000800000000000000,
#BPMCHANGE 138.07
#GOGOSTART
300000000000000000000000100000000000100000000000,
300000000000000000000000100000000000100000000000,
300000000000000000000000100000000000100000000000,
300000000000000000000000100000000000100000000000,
300000000000000000000000100000000000200000000000,
300000000000000000000000100000000000200000000000,
300000000000000000000000100000000000200000000000,
#GOGOEND
300000000000000000000000000000000000000000000000,
#END