Files
ESE/07 Game Music/DIGITAL HORIZON/DIGITAL HORIZON.tja
T

500 lines
7.1 KiB
Plaintext

//TJADB Project
TITLE:DIGITAL HORIZON
TITLEJA:DIGITAL HORIZON
SUBTITLE:--Rio Hamamoto feat. Aimee Blackschleger/RIDGE RACER
SUBTITLEJA:「リッジレーサー」より
BPM:154
WAVE:DIGITAL HORIZON.ogg
OFFSET:-1.813
DEMOSTART:54.800
COURSE:Oni
LEVEL:9
BALLOON:3,4,4,3
SCOREINIT:380,1140
SCOREDIFF:90
#START
#GOGOSTART
1112201112201112,
200100100100100100100111,
#GOGOEND
1120002200200220,
0020002211200220,
1120002200200220,
0020002211201120,
1120002200200220,
0020002211200220,
1120002200200220,
1020021020021020, //10
#GOGOSTART
1020120212021220,
1222102212021202,
1020120212021220,
1222102212021202,
1020110212021120,
1222102211021102,
1000221222122212,
2211221122121111, //18
#GOGOEND
1002002000220020,
0022002011201120,
1112002000220020,
0022002011201120,
1112002000221120,
0022002011201120,
1122112010221220,
1122112211122210, //26
1120201010201020,
2010202011201120,
1120201010201020,
2010202011201120,
1120201010201020,
2010202011201120,
1122101122101122,
1011221011221020, //34
#GOGOSTART
600000000000000000000008000000000000100000100200,
200200100000200200200000100000202020101010100000,
100000100100122100122100,
100000000000200000000000100100100100202020101000,
100000222111200200000222,
111200100000100222102020,
100100100100100200200200200200200200202020100000,
000000100000222222111111, //42
1000100012221111,
100000202020202020202220,
1222122212221022,
1222100022221111,
1202110211021120,
100000200200100000000000200020002000200020002000,
100200200200102020100000200000200000200200000200,
0222020220201111, //50
#GOGOEND
100200020002000200020002,
100200020002000200020002,
100200020002100200020002,
100200020002100200020002,
100200120002100200120002,
100200120002100200120002,
#GOGOSTART
1112201112201112,
200100100100100100100111, //58
#GOGOEND
1020122210221220,
1222102212201202,
1020122210221220,
1222102212201202,
1020112210221120,
1222102211201202,
1020112210221120,
100000202020101010200200200100100100000200200200, //66
#GOGOSTART
1000000022221010,
000222100100000200111222,
100000000222100000000100,
000000000000000200000000200000000000202020100000,
1111111120000000,
0000111120111120,
1111111120000011,
2000221221221221, //74
1000000022221010,
0022100070802000,
100200200200100100200000700000080000000000100000,
200000200000200200100100200000000000202020202000,
1022221120201022,
100200200200100000000000700000080000000000000000,
100200200200000000000000700008000000000000100000,
2202102212212212,
#GOGOEND
0, //83
#END
COURSE:Hard
LEVEL:7
BALLOON:5,6,3,3,3,5,4,3,3,6,3,14
SCOREINIT:440,1600
SCOREDIFF:95
#START
#GOGOSTART
30230230,
2010101010101011,
#GOGOEND
1020102202201020,
1020102202201010,
1020102202201020,
1020102202201010,
1020102202201020,
1020102202201010,
1020102202201020,
1020020020022010, //10
#GOGOSTART
1010102202201020,
1110102202201020,
1010102202201020,
1110102202201020,
1010102202201020,
1110102202201010,
3000202220202220,
2022202022201010, //18
#GOGOEND
3000202220200022,
22023030,
3000202220200022,
22023030,
3000202220200022,
22023030,
3000202220200022,
22223030, //26
1110200010102000,
1233,
1110200010102000,
1233,
1110200010102000,
1233,
3011103011103011,
1030111030203020, //34
#GOGOSTART
70008033,
0000300040002220,
70008033,
0000400040002220,
70802211,
00302100,
70804033,
0378, //42
1110100011101000,
100222222200,
1011100010111000,
1000100022202220,
1110100011101000,
000000200200200000000000200020002000200020002000,
1000101020202202,
0222020220202011, //50
#GOGOEND
10101210,
10121010,
12101010,
10101012,
10101210,
10121010,
#GOGOSTART
30230230,
2010101010101011, //58
#GOGOEND
1020102200201020,
1020101100201020,
1020102200201020,
1020101101102020,
1020102200201020,
1020101100201020,
1020102200201020,
1022022000201010, //66
#GOGOSTART
500000000000000000000008000000000000100000100000,
0000100020002220,
1000002220000010,
2202020220000010,
1000000020000022,
22102020,
1110100022202060,
000000000000000000000000000000000000000000000008, //74
00007081,
200200200000100000000000700000080000000000000000,
3000222070800010,
2220700000008010,
3000222020200070,
08107800,
70000081,
200200200000100000600000000000000000000000000008,
#GOGOEND
0, //83
#END
COURSE:Normal
LEVEL:6
BALLOON:4,2,2,3,4,18
SCOREINIT:480,2320
SCOREDIFF:118
#START
#GOGOSTART
30030030,
03333333,
#GOGOEND
10101011,
10101011,
10101011,
10111010,
10101011,
10101011,
10101011,
10222020,
#GOGOSTART
11101110,
10101110,
11101110,
10101110,
11101110,
10101110,
30222022,
22020220, //18
#GOGOEND
30220202,
02023030,
30220202,
02023030,
30220202,
02023030,
30220202,
02023030,
3212,
1233,
3212,
1233,
3212,
1233,
30330330,
33033030, //34
#GOGOSTART
600000000000000000000008000000000000300000300000,
0340,
600000000000000000000008000000000000300000300000,
0440,
600000000000000000000008000000000000400000400000,
0343,
600000000000000000000000000000000000000000000008,
00302220,
3333,
2222,
3333,
20222220,
3333,
2222,
4,
00202220, //50
#GOGOEND
10101011,
10101110,
10111010,
11101010,
10101011,
10101110,
#GOGOSTART
30030030,
03333333, //58
#GOGOEND
11102020,
10102220,
11102020,
10102220,
10111020,
10222010,
10111020,
10222010, //66
#GOGOSTART
600000000000000000000008000000000000300000300000,
0340,
30004003,
04,
600000000000000000000008000000000000200000000000,
00300300,
30004003,
000000000000600000000000000000000000000000000008, //74
07,
080000000000300000000000700000000000800000000000,
3078,
0708,
30002207,
000000000000080000000000000000300000000000000000,
7,
0,
#GOGOEND
8, //83
#END
COURSE:Easy
LEVEL:4
BALLOON:5,6,7,18
SCOREINIT:420,3610
SCOREDIFF:103
#START
#GOGOSTART
30030030,
000000600000000000000000000000000008000000000000,
#GOGOEND
1111,
1111,
1111,
12,
1111,
1111,
1111,
1022,
#GOGOSTART
1111,
1111,
1110,
2220,
1111,
1111,
3022,
2220, //18
#GOGOEND
3022,
2033,
3022,
2033,
3022,
2033,
3022,
2033,
3011,
1033,
3011,
1033,
3011,
1033,
30030030,
03003030, //34
#GOGOSTART
600000000000000000000008000000000000000000000000,
0330,
600000000000000000000008000000000000000000300000,
0440,
600000000000000000000008000000000000000000000000,
00300300,
600000000000000000000000000000000000000000000008,
02,
3333,
0220,
3333,
0220,
3333,
0220,
4,
0, //50
#GOGOEND
1111,
1111,
1111,
1110,
2222,
2220,
#GOGOSTART
30030030,
000000600000000000000000000000000008000000000000, //58
#GOGOEND
1110,
2220,
1110,
2220,
1110,
2220,
1110,
2220, //66
#GOGOSTART
600000000000000000000008000000000000000000000000,
0440,
600000000000000000000008000000000000000000300000,
0000040040000000,
600000000000000000000008000000000000000000000000,
00300300,
600000000000000000000008000000000000000000300000,
04, //74
7008,
0220,
7008,
0220,
7,
8120,
7,
0,
#GOGOEND
080000000000000000000000000000000000000000000000, //83
#END