524 lines
4.9 KiB
Plaintext
524 lines
4.9 KiB
Plaintext
//TJADB Project
|
||
TITLE:Do-Dai -Old Audio/Chart-
|
||
TITLEJA:Do-Dai
|
||
SUBTITLE:--Koji Nakagawa feat. IM@S ALLSTARS/THE iDOLM@STER: Live for You!
|
||
SUBTITLEJA:旧音源・譜面 「アイドルマスター2」より
|
||
BPM:171
|
||
WAVE:DoDai Old Audio Chart.ogg
|
||
OFFSET:-1.744
|
||
DEMOSTART:92.972
|
||
SCENEPRESET:IMAS_ML
|
||
|
||
//PSPDX level rating and scores. Wii1 Track (IMAS AS ver.).
|
||
|
||
COURSE:Oni
|
||
LEVEL:7
|
||
BALLOON:
|
||
SCOREINIT:430
|
||
SCOREDIFF:110
|
||
|
||
//8* before PSPDX, Score 500/110
|
||
|
||
#START
|
||
1000001110000020,
|
||
02222000,
|
||
1000001110000020,
|
||
02222000,
|
||
|
||
1000001110000011,
|
||
1000001110202000,
|
||
1000001110200030,
|
||
03030305, //8
|
||
|
||
000000000000000000000000000000000000000000000008,
|
||
0,
|
||
0,
|
||
0040400040400011,
|
||
|
||
1011101110111011,
|
||
2011201120112012,
|
||
2012201220122022,
|
||
24404400,
|
||
|
||
33033033,
|
||
03303220, //18
|
||
|
||
1020102011102020,
|
||
1020102011102020,
|
||
11201121,
|
||
0010200011102000,
|
||
|
||
1020102011102020,
|
||
1020102011102020,
|
||
1010200011102010,
|
||
0011201110002222, //26
|
||
|
||
1020102010112020,
|
||
1020102010112020,
|
||
11201121,
|
||
0010200011102000,
|
||
|
||
1020102010112020,
|
||
1020102010112020,
|
||
30303305,
|
||
000000000000000000000000000000000008000000000000, //34
|
||
|
||
10222020,
|
||
10022000,
|
||
10022020,
|
||
10022220,
|
||
|
||
10022021,
|
||
0010001000222000, //40
|
||
|
||
12121210,
|
||
12121210,
|
||
12121212,
|
||
1022102010221000,
|
||
|
||
5,
|
||
000000000000000000000008000000000000000000000000,
|
||
10111122,
|
||
3340, //48
|
||
|
||
#GOGOSTART
|
||
1022102010221020,
|
||
1011101011111020,
|
||
1022102010221020,
|
||
1011101011111020,
|
||
|
||
10201120,
|
||
10210120,
|
||
1110200011102000,
|
||
1110201000002000, //56
|
||
|
||
1022102010221020,
|
||
1011101011111020,
|
||
1022102010221020,
|
||
1011101011111020,
|
||
|
||
2002002000101022,
|
||
2002002000101022,
|
||
2002002000101000, //63
|
||
#GOGOEND
|
||
|
||
30000003,
|
||
33000000, //65
|
||
|
||
#GOGOSTART
|
||
1022102010221020,
|
||
1022202011111020,
|
||
1022102010221020,
|
||
1022202011111020,
|
||
|
||
10201120,
|
||
1000201000112000,
|
||
1110200011102000,
|
||
1110201000202000, //73
|
||
|
||
1022102010221020,
|
||
1022202011111020,
|
||
1022102010221020,
|
||
1022202011111020,
|
||
|
||
2002112000101020,
|
||
2002112000101020,
|
||
2002112000303000,
|
||
4400, //81
|
||
|
||
1000002010000022,
|
||
1022102210004000,
|
||
1000002010000022,
|
||
1022102210404000,
|
||
|
||
1000002010000020,
|
||
12121030,
|
||
#GOGOEND
|
||
0,
|
||
0,
|
||
0, //90
|
||
#END
|
||
|
||
|
||
COURSE:Hard
|
||
LEVEL:5
|
||
BALLOON:
|
||
SCOREINIT:470
|
||
SCOREDIFF:130
|
||
|
||
//6* before PSPDX, Score 580/130
|
||
|
||
#START
|
||
1000001110000000,
|
||
2220,
|
||
1000001110000000,
|
||
2222,
|
||
|
||
1000001110000011,
|
||
1,
|
||
1000001110100010,
|
||
01010105, //8
|
||
|
||
000000000000000000000000000000000000000000000008,
|
||
0,
|
||
01101101,
|
||
02202200,
|
||
|
||
01101100,
|
||
01101100,
|
||
01101101,
|
||
02202200,
|
||
33033033,
|
||
03303000, //18
|
||
|
||
12121010,
|
||
10111000,
|
||
12121022,
|
||
02202000,
|
||
|
||
12121010,
|
||
10111000,
|
||
12101212,
|
||
03333000, //26
|
||
|
||
12121010,
|
||
12121000,
|
||
20202022,
|
||
02222000,
|
||
|
||
12121010,
|
||
12121000,
|
||
20202205,
|
||
000000000000000000000000000000000008000000000000, //34
|
||
|
||
10022000,
|
||
10022000,
|
||
10210210,
|
||
10022000,
|
||
|
||
10022000,
|
||
10022000, //40
|
||
|
||
10101110,
|
||
10111010,
|
||
10101110,
|
||
10111010,
|
||
|
||
5,
|
||
000000000000000000000008000000000000000000000000,
|
||
10011110,
|
||
3330, //48
|
||
|
||
#GOGOSTART
|
||
1000100010111010,
|
||
10101110,
|
||
1000100010111010,
|
||
10101110,
|
||
|
||
1212,
|
||
1212,
|
||
11201120,
|
||
1202, //56
|
||
|
||
1000100010111010,
|
||
10101110,
|
||
1000100010111010,
|
||
10101110,
|
||
|
||
2002002000101000,
|
||
2002002000101000,
|
||
2002002000101000, //63
|
||
#GOGOEND
|
||
|
||
30000003,
|
||
33000000, //65
|
||
|
||
#GOGOSTART
|
||
1000100010111010,
|
||
10102222,
|
||
1000100010111010,
|
||
10102222,
|
||
|
||
1212,
|
||
1212,
|
||
11201120,
|
||
10200220, //73
|
||
|
||
1000100010111010,
|
||
10102222,
|
||
1000100010111010,
|
||
10102220,
|
||
|
||
2002002000101000,
|
||
2002002000101000,
|
||
2002002000101000,
|
||
4400, //81
|
||
|
||
10021002,
|
||
12121040,
|
||
10021002,
|
||
12121440,
|
||
|
||
10021002,
|
||
1333,
|
||
#GOGOEND
|
||
0,
|
||
0,
|
||
0, //90
|
||
#END
|
||
|
||
|
||
COURSE:Normal
|
||
LEVEL:4
|
||
BALLOON:
|
||
SCOREINIT:610
|
||
SCOREDIFF:150
|
||
|
||
//5* before PSPDX, score 620/170
|
||
|
||
#START
|
||
10011000,
|
||
1,
|
||
10011000,
|
||
1,
|
||
|
||
10011000,
|
||
1,
|
||
10011001,
|
||
01010000, //8
|
||
|
||
500000000000000000000000000000000000000000000008,
|
||
0,
|
||
1110,
|
||
22,
|
||
|
||
1110,
|
||
1110,
|
||
1110,
|
||
22,
|
||
30030030,
|
||
03003000, //18
|
||
|
||
1110,
|
||
10111000,
|
||
11,
|
||
22,
|
||
|
||
1110,
|
||
10111000,
|
||
1110,
|
||
24, //26
|
||
|
||
1110,
|
||
10111000,
|
||
2220,
|
||
22,
|
||
|
||
1110,
|
||
10111000,
|
||
20202005,
|
||
000000000000000000000008000000000000000000000000, //34
|
||
|
||
10011000,
|
||
1,
|
||
10011000,
|
||
1,
|
||
|
||
10011001,
|
||
01010000, //40
|
||
|
||
1111,
|
||
1110,
|
||
1111,
|
||
1110,
|
||
|
||
5,
|
||
000000000000000000000008000000000000000000000000,
|
||
1111,
|
||
3330, //48
|
||
|
||
#GOGOSTART
|
||
1111,
|
||
10111000,
|
||
1111,
|
||
10111000,
|
||
|
||
1202,
|
||
1202,
|
||
1202,
|
||
1202, //56
|
||
|
||
1111,
|
||
10111000,
|
||
1111,
|
||
10111000,
|
||
|
||
2204,
|
||
2204,
|
||
2204, //63
|
||
#GOGOEND
|
||
|
||
4,
|
||
3, //65
|
||
|
||
#GOGOSTART
|
||
1110,
|
||
10101110,
|
||
1110,
|
||
10101110,
|
||
|
||
1202,
|
||
1202,
|
||
1202,
|
||
1202, //73
|
||
|
||
1110,
|
||
10101110,
|
||
1110,
|
||
10101110,
|
||
|
||
2204,
|
||
2204,
|
||
2204,
|
||
4, //81
|
||
|
||
10011000,
|
||
1110,
|
||
10011000,
|
||
1110,
|
||
|
||
10011000,
|
||
1333,
|
||
#GOGOEND
|
||
0,
|
||
0,
|
||
0, //90
|
||
#END
|
||
|
||
|
||
COURSE:Easy
|
||
LEVEL:3
|
||
BALLOON:
|
||
SCOREINIT:520
|
||
SCOREDIFF:150
|
||
|
||
//4* before PSPDX, score 550/160
|
||
|
||
#START
|
||
1,
|
||
1,
|
||
1,
|
||
1,
|
||
|
||
11,
|
||
1,
|
||
11,
|
||
11, //8
|
||
|
||
500000000000000000000000000000000000000000000008,
|
||
0,
|
||
11,
|
||
22,
|
||
|
||
11,
|
||
1,
|
||
11,
|
||
22,
|
||
0,
|
||
33, //18
|
||
|
||
11,
|
||
11,
|
||
1110,
|
||
1,
|
||
|
||
11,
|
||
11,
|
||
1110,
|
||
13, //26
|
||
|
||
11,
|
||
11,
|
||
2220,
|
||
2,
|
||
|
||
11,
|
||
11,
|
||
20202005,
|
||
000000000000000000000008000000000000000000000000, //34
|
||
|
||
11,
|
||
1,
|
||
11,
|
||
1,
|
||
|
||
11,
|
||
1, //40
|
||
|
||
1110,
|
||
1110,
|
||
1110,
|
||
1110,
|
||
|
||
500000000000000000000000000000000000000000000008,
|
||
0,
|
||
0,
|
||
3330, //48
|
||
|
||
#GOGOSTART
|
||
1110,
|
||
11,
|
||
1110,
|
||
11,
|
||
|
||
0202,
|
||
0202,
|
||
0202,
|
||
0200, //56
|
||
|
||
1110,
|
||
11,
|
||
1110,
|
||
11,
|
||
|
||
0204,
|
||
0204,
|
||
0204, //63
|
||
#GOGOEND
|
||
|
||
0,
|
||
3, //65
|
||
|
||
#GOGOSTART
|
||
1111,
|
||
11,
|
||
1111,
|
||
11,
|
||
|
||
0202,
|
||
0202,
|
||
0202,
|
||
0200, //73
|
||
|
||
1111,
|
||
11,
|
||
1111,
|
||
11,
|
||
|
||
0204,
|
||
0204,
|
||
0204,
|
||
4, //81
|
||
|
||
11,
|
||
1110,
|
||
11,
|
||
1110,
|
||
|
||
11,
|
||
3333,
|
||
#GOGOEND
|
||
0,
|
||
0,
|
||
0, //90
|
||
#END |