Files
ESE/07 Game Music/Fishing Spirits Wonder Medley/Fishing Spirits Wonder Medley.tja
T
Thonker2 435ef51571 NS2 Update + another Missing Song
01 Pop
HOT LIMIT (New Ura Chart)
Gakuen Tengoku (Moved from "02 Anime", added New Chart from NS2, fixed Old Chart from AC3)

07 Game Music
Fishing Spirits Wonder Medley
2026-08-28 20:28:28 +08:00

635 lines
6.1 KiB
Plaintext
Executable File

//TJADB Project
TITLE:Fishing Spirits Wonder Medley
TITLEJA:釣りスピリッツ ワンダー メドレー
SUBTITLE:--
SUBTITLEJA:
BPM:121
WAVE:Fishing Spirits Wonder Medley.ogg
OFFSET:-1.749
DEMOSTART:21.570
//Temporary Chart/Audio
//Deviation: Added HS 0.91 to enforce drumroll tail speed at Measure 73.
COURSE:Oni
LEVEL:7
BALLOON:
SCOREINIT:2290
SCOREDIFF:0
#START
#MEASURE 1/4
#SCROLL 5
508,
#BARLINEOFF
#MEASURE 3/4
#SCROLL 1
3,
#BARLINEON
#MEASURE 5/8
0,
#MEASURE 4/4
#BPMCHANGE 120
1020102010210211,
1020102010210210,
1020102010120211,
100000200000100100100100200000200100200000101010,
1020102010210211,
1020102010210210,
1020102010120210,
1222112120203000,
#BARLINEOFF
#MEASURE 2/4
#BPMCHANGE 198.5
0, //12
#BARLINEON
#MEASURE 4/4
#BPMCHANGE 152
1111222211112222,
1010201120101040,
0010201120101040,
0011104000400000,
1122112211221122,
1010201120101040,
0011102000400040,
#SCROLL 4
#GOGOSTART
000000000000600000000008000000000000000000600000,
000008000000000000000000600000000008000000000000, //21
#GOGOEND
#MEASURE 3/4
#BPMCHANGE 135
#SCROLL 1
300110201010,
112012012011,
102110201021,
102010211020,
301400,
221101021021,
102111201021,
112010211120,
#MEASURE 4/4
#BPMCHANGE 122.7
#SCROLL 1.1
4
#BPMCHANGE 113.45
0, //30
#MEASURE 3/4
#BPMCHANGE 193.75
#SCROLL 1
112220,
221110,
112220,
221110,
101011102000,
101011102000,
101022201000,
101022201000,
101011102000,
101011102000,
101022201000,
600000000000000000000000000008000000,
4,
#MEASURE 4/4
#BPMCHANGE 189
0, //44
#MEASURE 3/4
#BPMCHANGE 162
111111100110,
200012,
100101,
221,
111111100010,
200012,
100121,
221,
111111100010,
200012,
100101,
221,
111111111010,
200012,
#MEASURE 4/4
#BPMCHANGE 157.81
#SCROLL 1.03
100000000000600000000008000000300000000000000000, //59
#MEASURE 3/4
#BPMCHANGE 170
#SCROLL 1
#GOGOSTART
100111,
201,
100121,
200011111111,
100010221010,
200010221010,
200010221010,
200010221010,
300011221010,
300011221010,
400011221010,
400011221010,
6,
#BPMCHANGE 186
00000000000
#SCROLL 0.91
8
#SCROLL 1
000000, //73
#GOGOEND
#MEASURE 4/4
#BPMCHANGE 160
300012200122,
1122,
100122100200,
122000000000,
0,
0, //79
#END
COURSE:Hard
LEVEL:6
BALLOON:18
SCOREINIT:4290
SCOREDIFF:0
#START
#MEASURE 1/4
#SCROLL 5
508,
#BARLINEOFF
#MEASURE 3/4
#SCROLL 1
3,
#BARLINEON
#MEASURE 5/8
0,
#MEASURE 4/4
#BPMCHANGE 120
1000100010010010,
1000100020020020,
1000100010010010,
12012220,
1000100010010010,
1000100020020020,
1000100010010010,
12012230,
#BARLINEOFF
#MEASURE 2/4
#BPMCHANGE 198.5
0, //12
#BARLINEON
#MEASURE 4/4
#BPMCHANGE 152
11101110,
10210104,
00010104,
00040400,
11101110,
10210104,
00020404,
#SCROLL 4
#GOGOSTART
000000000000600000000008000000000000000000600000,
000008000000000000000000600000000008000000000000, //21
#GOGOEND
#MEASURE 3/4
#BPMCHANGE 135
#SCROLL 1
3,
0,
100110001001,
100010011000,
34,
0,
100110001001,
100010011000,
#MEASURE 4/4
#BPMCHANGE 122.7
#SCROLL 1.1
4
#BPMCHANGE 113.45
0, //30
#MEASURE 3/4
#BPMCHANGE 193.75
#SCROLL 1
101110,
202220,
101110,
202220,
101120,
101120,
102210,
102210,
101120,
101120,
102210,
600000000000000000000000000008000000,
4,
#MEASURE 4/4
#BPMCHANGE 189
0, //44
#MEASURE 3/4
#BPMCHANGE 162
100101,
200011,
100101,
2,
100101,
200011,
100101,
2,
100101,
200011,
100101,
200009,
0,
000090000,
#MEASURE 4/4
#BPMCHANGE 157.81
#SCROLL 1.03
8, //59
#MEASURE 3/4
#BPMCHANGE 170
#SCROLL 1
#GOGOSTART
100110,
201,
100110,
201111,
101110,
201110,
201110,
201110,
301110,
301110,
401110,
401110,
6,
#BPMCHANGE 186
00000000000
#SCROLL 0.91
8
#SCROLL 1
000000, //73
#GOGOEND
#MEASURE 4/4
#BPMCHANGE 160
300000000111,
1122,
100111100100,
111000000000,
0,
0, //79
#END
COURSE:Normal
LEVEL:4
BALLOON:18,19,20,15
SCOREINIT:10760
SCOREDIFF:0
#START
#MEASURE 1/4
#SCROLL 3
500000000008,
#BARLINEOFF
#MEASURE 3/4
#SCROLL 1
0,
#BARLINEON
#MEASURE 5/8
0,
#MEASURE 4/4
#BPMCHANGE 120
11,
12,
1110,
12,
11,
12,
1110,
1003,
#BARLINEOFF
#MEASURE 2/4
#BPMCHANGE 198.5
0, //12
#BARLINEON
#MEASURE 4/4
#BPMCHANGE 152
1110,
10000001,
00000001,
0,
1110,
10000001,
00000003,
#SCROLL 3
#GOGOSTART
000000000000600000000008000000000000000000600000,
000008000000000000000000600000000008000000000000, //21
#GOGOEND
#MEASURE 3/4
#BPMCHANGE 135
#SCROLL 1
3,
0,
011,
111,
3,
0,
011,
111,
#MEASURE 4/4
#BPMCHANGE 122.7
#SCROLL 1.1
4
#BPMCHANGE 113.45
0, //30
#MEASURE 3/4
#BPMCHANGE 193.75
#SCROLL 1
1,
1,
2,
2,
110,
110,
220,
220,
110,
110,
220,
600000000000000000000000000008000000,
3,
#MEASURE 4/4
#BPMCHANGE 189
0, //44
#MEASURE 3/4
#BPMCHANGE 162
070000,
0,
0,
8,
070000,
0,
0,
8,
070000,
0,
0,
800009,
0,
000090000,
#MEASURE 4/4
#BPMCHANGE 157.81
#SCROLL 1.03
8, //59
#MEASURE 3/4
#BPMCHANGE 170
#SCROLL 1
#GOGOSTART
101,
2,
101,
2,
101,
201,
201,
201,
301,
301,
401,
401,
6,
#BPMCHANGE 186
00000000000000000
#SCROLL 0.91
8
#SCROLL 1
000000000000000000, //73
#GOGOEND
#MEASURE 4/4
#BPMCHANGE 160
3,
1110,
2220,
3,
0,
0, //79
#END
COURSE:Easy
LEVEL:2
BALLOON:15,16,17,13
SCOREINIT:21070
SCOREDIFF:0
#START
#MEASURE 1/4
#SCROLL 2
500000000008,
#BARLINEOFF
#MEASURE 3/4
#SCROLL 1
0,
#BARLINEON
#MEASURE 5/8
0,
#MEASURE 4/4
#BPMCHANGE 120
1,
1,
11,
1,
1,
1,
11,
1,
#BARLINEOFF
#MEASURE 2/4
#BPMCHANGE 198.5
0, //12
#BARLINEON
#MEASURE 4/4
#BPMCHANGE 152
11,
10000005,
000000000008000000000000000000000000000000500000,
000000000008000000000000000000000000000000000000,
11,
10000005,
000000000008000000000000000000000000000000000000,
#SCROLL 2
#GOGOSTART
000000000000600000000008000000000000000000600000,
000008000000000000000000600000000008000000000000, //21
#GOGOEND
#MEASURE 3/4
#BPMCHANGE 135
#SCROLL 1
3,
0,
101,
010,
3,
0,
101,
010,
#MEASURE 4/4
#BPMCHANGE 122.7
#SCROLL 1.1
3
#BPMCHANGE 113.45
0, //30
#MEASURE 3/4
#BPMCHANGE 193.75
#SCROLL 1
1,
0,
1,
0,
1,
0,
2,
0,
1,
0,
2,
600000000000000000000000000000000008,
0,
#MEASURE 4/4
#BPMCHANGE 189
0, //44
#MEASURE 3/4
#BPMCHANGE 162
070000,
0,
0,
8,
070000,
0,
0,
8,
070000,
0,
0,
800009,
0,
000090000,
#MEASURE 4/4
#BPMCHANGE 157.81
#SCROLL 1.03
8, //59
#MEASURE 3/4
#BPMCHANGE 170
#SCROLL 1
#GOGOSTART
0,
1,
0,
1,
1,
1,
1,
1,
3,
3,
4,
4,
6,
#BPMCHANGE 186
00000000000000000
#SCROLL 0.91
8
#SCROLL 1
000000000000000000, //73
#GOGOEND
#MEASURE 4/4
#BPMCHANGE 160
3,
11,
22,
3,
0,
0, //79
#END