Files
ESE/07 Game Music/HELLO/HELLO Wii2.tja
T

505 lines
4.8 KiB
Plaintext

//TJADB Project
TITLE:“HELLO‼” -Wii2/AC13 Chart-
TITLEJA:“HELLO!!”
SUBTITLE:--Satoru Kousaki feat. Haruka Tomatsu/THE iDOLM@STER Dearly Stars
SUBTITLEJA:Wii2/AC13譜面 「THE IDOLM@STER」より
BPM:173
WAVE:HELLO.ogg
OFFSET:-2.993
DEMOSTART:67.495
SCENEPRESET:IMAS
COURSE:Oni
LEVEL:8
BALLOON:12
SCOREINIT:440
SCOREDIFF:120
#START
0,
0,
0,
12,
12, //5
1000200011102000,
1022201110203030,
0000100011102000,
1022201110204040,
0022102011201120,
1011202011101020,
0022102011201120,
1011201022202220, //13
20201120,
1000200110102001,
10201120,
3001104000104000,
1110200011102000,
1110202011102020,
01221020,
3030003000222000, //21
10110220,
10110220,
10110222,
1000001000222000,
10010202,
11010020,
10112020,
10010020, //29
1020101000222020,
1020101000222000,
1020101000222020,
1022201000202000,
1010201000222020,
1010201000222000,
12121212,
10040000, //37
1011101000202020,
1011101000222220,
1011101110111011,
1010003000222020,
1011102010111020,
1011102010111020,
1011101110222020,
1011101110222020,
1110111022202220,
1111122220004000, //47
#GOGOSTART
1022102011201020,
1022102011201020,
1022102011201020,
3000000010221020,
1022202010221020,
1022202000221020,
1011101110111010,
3000003000222000, //55
2010102210201022,
2010102210201022,
2010102210101022,
1020102010101000,
1110300011103000,
1110300011103000,
7,
080000000000100100100000200000000000400000000000, //63
#GOGOEND
10110020,
10110220,
1000100011001020,
10110220,
11010120,
11010220,
1010200010102220,
0, //71
22222222,
02222222,
22222222,
2210102210103000,
1010200110112020,
1011201120102000,
1020102010221022,
1022103000222020, //79
#GOGOSTART
2010102210201022,
2010102210201022,
2010102210201022,
12121110,
3232,
30223220,
3000000011111110,
0,
#GOGOEND
0,
0,
0, //90
#END
COURSE:Hard
LEVEL:6
BALLOON:12
SCOREINIT:480
SCOREDIFF:130
#START
0,
0,
0,
12,
12, //5
10201120,
11101033,
02101120,
11101044,
02101120,
11101022,
02101120,
11101110, //13
10201120,
1000200110102000,
10201120,
30140000,
11101110,
22202220,
02101120,
33030000, //21
10210120,
10210120,
10210120,
10010000,
1001101000202000,
1001101000002000,
10201120,
10210000, //29
10210122,
10210122,
10210122,
10010000,
1001101000202000,
1001101000002000,
10201120,
10220000, //37
1011101000202000,
1011101000222000,
1011101110111000,
1011101000202000,
1011101110101000,
1011101110101000,
1011101110202000,
1011101110202000,
5,
000000000000000000000008000000000000400000000000, //47
#GOGOSTART
1011101020202000,
1011101020002000,
1011100010111000,
3,
1022200010202000,
1022200010202000,
1212,
30030000, //55
10201120,
11210120,
10201120,
11221000,
1110100011101000,
2220200022202000,
7,
080000000000000000000000000000000000400000000000, //63
#GOGOEND
10010020,
10110220,
1000100011002000,
10110000,
11010120,
11010220,
11201122,
0, //71
22222222,
02222220,
22222222,
01101110,
1000200110102000,
1000200110102000,
3333,
30030000, //79
#GOGOSTART
1011101020202000,
1011101020002000,
1011101020202000,
1011101020002000,
33,
3232,
30001105,
000000000000000000000000000000000008000000000000,
#GOGOEND
0,
0,
0, //90
#END
COURSE:Normal
LEVEL:5
BALLOON:
SCOREINIT:580
SCOREDIFF:160
#START
0,
0,
0,
12,
12, //5
35,
000000000000000000000008000000000000000000000000,
1110,
11101000,
1110,
11101000,
1110,
11101000, //13
10001102,
0,
10001100,
30030000,
1210,
11101000,
1210,
33030000, //21
10110020,
10110020,
1,
2,
10110020,
10110000,
1212,
11, //29
10110020,
10110020,
1,
2,
10110020,
10110000,
1212,
12, //37
11110000,
11110000,
1111,
11110000,
11101110,
11101110,
1212,
1210,
5,
000000000000000000000008000000000000400000000000, //47
#GOGOSTART
10102220,
10102220,
1210,
3,
11102000,
11102000,
1212,
30030000, //55
10102220,
10102220,
1210,
1210,
33,
44,
5,
000000000000000000000008000000000000000000000000, //63
#GOGOEND
10010020,
10010000,
10010020,
1100,
10110020,
10110020,
1212,
0, //71
22202220,
2222,
22202220,
11101110,
10101110,
1110,
3333,
30030000, //79
#GOGOSTART
11102020,
11102020,
11102220,
1210,
3333,
33,
5,
000000000000000000000000000000000008000000000000,
#GOGOEND
0,
0,
0, //90
#END
COURSE:Easy
LEVEL:4
BALLOON:
SCOREINIT:590
SCOREDIFF:140
#START
0,
0,
0,
1,
1, //5
5,
000000000000000000000008000000000000000000000000,
11,
1110,
11,
1110,
11,
1110, //13
11,
2,
11,
2,
12,
12,
12,
3, //21
1102,
1102,
1,
1,
10010000,
10010000,
11,
1, //29
1102,
1102,
1,
1,
10010000,
10010000,
1110,
22, //37
1111,
11,
1111,
12,
1110,
1110,
1110,
2220,
5,
000000000000000000000008000000000000000000000000, //47
#GOGOSTART
1120,
12,
1120,
3,
1120,
1120,
11,
33, //55
1120,
12,
1120,
11,
33,
44,
5,
000000000000000000000008000000000000000000000000, //63
#GOGOEND
1012,
11,
1012,
1,
1102,
1102,
11,
1, //71
2222,
22,
2222,
23,
1120,
1120,
3330,
30030000, //79
#GOGOSTART
1120,
12,
1120,
12,
33,
33,
5,
000000000000000000000000000000000008000000000000,
#GOGOEND
0,
0,
0, //90
#END