Files
ESE/07 Game Music/IDOL POWER RAINBOW/IDOL POWER RAINBOW.tja
T
2026-09-09 16:46:55 -04:00

454 lines
4.9 KiB
Plaintext
Raw Blame History

This file contains ambiguous Unicode characters
This file contains Unicode characters that might be confused with other characters. If you think that this is intentional, you can safely ignore this warning. Use the Escape button to reveal them.
//TJADB Project
TITLE:IDOL POWER RAINBOW
TITLEJA:IDOL POWER RAINBOW
SUBTITLE:--Hiroto Sasaki feat. Nakamura Eriko/THE iDOLM@STER MUST SONGS: Blue Album
SUBTITLEJA:
BPM:160
WAVE:IDOL POWER RAINBOW.ogg
OFFSET:-1.705
DEMOSTART:52.700
SCENEPRESET:IMAS
COURSE:Oni
LEVEL:6
BALLOON:3,13
SCOREINIT:460,1580
SCOREDIFF:115
#START
21212211,
02121221,
21212211,
02121221,
21212211,
02121221,
21212211,
02121221,
500000000000000000000000000000000008000000000000,
1020100022101020, //10
1010201110102020,
1022201022201000,
1010202010102220,
1022201000102000,
1010201110102020,
1022201022201000,
1010202010102220,
30430040, //18
1010201110102020,
1022201022201000,
1010202010102220,
1022201000102000,
1010201110102020,
1022201022201000,
1010202010102220,
30430011, //26
11210120,
12210220,
11210120,
12210221,
1011101110222020,
1011101110222020,
1011101110222020,
3344, //34
#GOGOSTART
1110102010202220,
1020102010112020,
1010201120112022,
20404400,
1110102010202220,
1020102010112020,
500000000000000000000000000000000000000008000000,
0000200022101020, //42
1110102010202220,
1020102010112020,
7000802010112022,
20404400,
1110201011102030,
4030403040302022,
20303343,
4030403040302022, //50
#GOGOEND
500000000000000000000000000000000000000000000008,
02121221,
21212211,
02121221,
21212211,
02121221,
21212211,
0333, //58
#GOGOSTART
1110102010202220,
1020102010112020,
1010201120112022,
20404400,
1110102010202220,
1020102010112020,
500000000000000000000000000000000000000008000000,
0000200022101020, //66
1110102010202220,
1020102010112020,
1010201120112022,
20404400,
1110201011102030,
4030403040302022,
20303343,
4030403040302022, //74
#GOGOEND
7,
080,
0,
0,
0, //79
#END
COURSE:Hard
LEVEL:4
BALLOON:13,3,13,13
SCOREINIT:600,2660
SCOREDIFF:163
#START
0,
0,
0303,
0343,
0303,
0343,
0303,
0444,
9009,
8,
11201122,
10210220,
11201122,
10210120,
11201122,
10210220,
11201122,
30430040,
11201122,
10210220,
11201122,
10210120,
11201122,
10210220,
11201122,
30430011,
10210040,
10210040,
10210040,
10210040,
10111040,
10111040,
10111040,
3344,
#GOGOSTART
11101022,
20201110,
1122,
00404400,
11101022,
20201110,
500000000000000000000000000000000000000008000000,
0222,
11101022,
20201110,
7822,
00404400,
600000000000000000000000000008000000000000300000,
03030300,
00404403,
00303300,
#GOGOEND
9009,
8,
0303,
0343,
0303,
0343,
0303,
0333,
#GOGOSTART
11101022,
20201110,
1122,
00404400,
11101022,
20201110,
500000000000000000000000000000000000000008000000,
0222,
11101022,
20201110,
1122,
00404400,
600000000000000000000000000008000000000000300000,
03030300,
00404403,
00303300,
#GOGOEND
7,
080,
0,
0,
0,
#END
COURSE:Normal
LEVEL:4
BALLOON:9,2,9,13
SCOREINIT:600,3470
SCOREDIFF:180
#START
0,
0,
0303,
0343,
0303,
0303,
0303,
0444,
9009,
8,
1110,
10010000,
2220,
20020000,
1110,
10010000,
2220,
40040040,
1110,
10010000,
2220,
20020000,
1110,
10010000,
2220,
30030010,
10010040,
10010040,
10010040,
10010040,
1114,
1114,
1114,
3033,
#GOGOSTART
1112,
2211,
1122,
00404400,
1112,
2211,
500000000000000000000000000000000000000008000000,
0222,
1112,
2211,
7822,
00404400,
600000000000000000000000000008000000000000300000,
03030300,
00404403,
00303300,
#GOGOEND
9009,
8,
0303,
0333,
0303,
0333,
0303,
0333,
#GOGOSTART
1112,
2211,
1122,
00404400,
1112,
2211,
500000000000000000000000000000000000000008000000,
0222,
1112,
2211,
1122,
00404400,
600000000000000000000000000008000000000000300000,
03030300,
00404403,
00303300,
#GOGOEND
7,
080,
0,
0,
0,
#END
COURSE:Easy
LEVEL:3
BALLOON:8,2,8,8
SCOREINIT:470,4380
SCOREDIFF:155
#START
0,
0,
0303,
0303,
0303,
0303,
0303,
0303,
9009,
8,
11,
1,
22,
2,
11,
1,
22,
40040040,
11,
1,
22,
2,
11,
1,
22,
30030000,
500000000000000000000008000000000000400000000000,
500000000000000000000008000000000000400000000000,
500000000000000000000008000000000000400000000000,
500000000000000000000008000000000000400000000000,
500000000000000000000008000000000000400000000000,
500000000000000000000008000000000000400000000000,
500000000000000000000008000000000000400000000000,
3033,
#GOGOSTART
1112,
2211,
1011,
0440,
1112,
2211,
500000000000000000000000000000000000000008000000,
0222,
1112,
2211,
7811,
0440,
600000000000000000000000000008000000000000300000,
03030300,
00404003,
0330,
#GOGOEND
9009,
8,
0303,
0303,
0303,
0303,
0303,
0333,
#GOGOSTART
1112,
2211,
1011,
0440,
1112,
2211,
500000000000000000000000000000000000000008000000,
0222,
1112,
2211,
1011,
0440,
600000000000000000000000000008000000000000300000,
03030300,
00404003,
0330,
#GOGOEND
7,
080,
0,
0,
0,
#END