Files
ESE/07 Game Music/LOVE Order Made/LOVE Order Made.tja
T
2026-09-09 16:46:55 -04:00

432 lines
5.2 KiB
Plaintext
Raw Blame History

This file contains ambiguous Unicode characters
This file contains Unicode characters that might be confused with other characters. If you think that this is intentional, you can safely ignore this warning. Use the Escape button to reveal them.
//TJADB Project
TITLE:LOVE Order Made
TITLEJA:LOVEオーダーメイド
SUBTITLE:--Akiko Noda feat. Naomi Wakabayashi/THE iDOLM@STER MUST SONGS: Blue Album
SUBTITLEJA:
BPM:137
WAVE:LOVE Order Made.ogg
OFFSET:-1.985
DEMOSTART:8.953
SCENEPRESET:IMAS
COURSE:Oni
LEVEL:6
BALLOON:
SCOREINIT:590,2150
SCOREDIFF:165
#START
0,
0,
0,
500000000000000000000000000000000008000000000000, //4
#GOGOSTART
3000201110102020,
1000201110202010,
1000201110102020,
1022202220202000,
1000201110102020,
1000201110202010,
1000201110202050,
000000000000000000000008000000000000000000000000, //12
3000201110102020,
1000201110202010,
1000201110102020,
1022202220202002,
1000201110102020,
1000201110202010,
1000201110102022,
1022202220102050,
000000000000000000000000000000000008000000000000,
0, //22
#GOGOEND
10211012,
10212010,
10211012,
10212010,
10210122,
1022201000001020,
12210120,
1020101000202210, //30
10211012,
10212010,
10211012,
10212010,
11210122,
1022201000102020,
12210125,
000000000000000000000000000008000000000000000000, //38
1000201022102010,
10210210,
1000201022102010,
10210210,
1000201010222000,
12110121,
10201225,
000000000000000000000000000000000008000000000000, //46
#GOGOSTART
3000201110102020,
1000201110202010,
1000201110102020,
1022202220202010,
1000201110102020,
1000201110202010,
1000201110202210,
01210300, //54
3000201110102020,
1000201110202010,
1000201110102020,
1022202212102022,
1000201110102020,
1000201110202010,
1000201110102022,
1022202210102050, //62
000000000000000000000000000000000008000000000000,
10201122,
10201221,
1022201022201002,
10201122,
1010200010202022,
1022203000222030,
0022203020201010, //70
2220303000000000,
0,
0
#GOGOEND
0, //73
#END
COURSE:Hard
LEVEL:4
BALLOON:7,23
SCOREINIT:620,2960
SCOREDIFF:173
#START
0,
0,
0,
500000000000000000000000000000000008000000000000,//4
#GOGOSTART
30201122,
10201122,
10201122,
12020220,
10201122,
10201122,
10201225,
000000000000000000000008000000000000000000000000,
30201122,
10201122,
10201122,
12020220,
10201122,
10201122,
10201122,
12020225,
000000000000000000000000000000000008000000000000,
0, //22
#GOGOEND
10211002,
10212000,
10211002,
10212000,
10210122,
12210002,
10210120,
10120210,
10211002,
10212000,
10211002,
10212000,
11210122,
12210122,
12210125,
000000000000000000000000000008000000000000000000,
20022020,
10011010,
20022020,
10011000,
20211020,
78,
10201225,
000000000000000000000000000000000008000000000000,//46
#GOGOSTART
30201122,
10201122,
10201122,
12020220,
10201122,
10201122,
10201225,
000000000000000000000008000000000000000000000000,
30201122,
10201122,
10201122,
12020220,
10201122,
10201122,
10201122,
12020225,
000000000000000000000000000000000008000000000000,
10201122,
10201122,
12212210,
10201122,
11201120,
1020203000222030,
0022203020201010,
0900,
0000000009000000,
8
#GOGOEND
0,
#END
COURSE:Normal
LEVEL:4
BALLOON:5,18
SCOREINIT:720,4340
SCOREDIFF:225
#START
0,
0,
0,
500000000000000000000000000000000008000000000000, //4
#GOGOSTART
30001122,
00001122,
00001122,
02020220,
10001122,
00001122,
00001225,
000000000000000000000008000000000000000000000000,
30001122,
00001122,
00001122,
02020220,
10001122,
00001122,
00001122,
02020225,
000000000000000000000000000000000008000000000000,
0, //22
#GOGOEND
10022000,
10022000,
10022000,
10022000,
10110110,
10110000,
10110110,
10220220,
10022000,
10022000,
10022000,
10022000,
10110101,
10110000,
10110115,
000000000000000000000000000008000000000000000000,
20022000,
10011000,
20022000,
10011000,
20211000,
78,
10201225,
000000000000000000000000000000000008000000000000, //46
#GOGOSTART
30001122,
00001122,
00001122,
02020220,
10001122,
00001122,
00001225,
000000000000000000000008000000000000000000000000,
30001122,
00001122,
00001122,
02020220,
10001122,
00001122,
00001122,
02020225,
000000000000000000000000000000000008000000000000,
0202,
0202,
1111,
0202,
0202,
10030001,
00030000,
0900,
0000000009000000,
8
#GOGOEND
0, //73
#END
COURSE:Easy
LEVEL:3
BALLOON:4,13
SCOREINIT:700,6860
SCOREDIFF:278
#START
0,
0,
0,
500000000000000000000000000008000000000000000000,//4
#GOGOSTART
3011,
0011,
0011,
2211,
1011,
0011,
00001015,
000000000000000000000008000000000000000000000000,
3011,
0011,
0011,
2211,
1011,
0011,
0011,
2215,
000000000000000000000000000008000000000000000000,
0, //22
#GOGOEND
12,
12,
12,
12,
1100,
1100,
11,
1101,
12,
12,
12,
12,
1100,
1100,
10100005,
000000000000000000000000000008000000000000000000,
2002,
1001,
2002,
1001,
21,
78,
10001005,
000000000000000000000000000008000000000000000000, //46
#GOGOSTART
3011,
0011,
0011,
2211,
1011,
0011,
0015,
000000000000000000000008000000000000000000000000,
3011,
0011,
0011,
2211,
1011,
0011,
0011,
2215,
000000000000000000000000000008000000000000000000,
0202,
0202,
1111,
0202,
0202,
10030001,
00030000,
0900,
0000000009000000,
8
#GOGOEND
0, //73
#END