Files
ESE/07 Game Music/Last Surprise/Last Surprise.tja
T

293 lines
3.0 KiB
Plaintext

//TJADB Project
TITLE:Last Surprise
TITLEJA:Last Surprise
SUBTITLE:--Persona 5
SUBTITLEJA:「ペルソナ5」より
BPM:123
WAVE:Last Surprise.ogg
OFFSET:-0.828
DEMOSTART:46.387
COURSE:Oni
LEVEL:8
BALLOON:20,20
SCOREINIT:860,2600
SCOREDIFF:238
#START
1111001111001010,
1111001111004000,
1111001111001010,
1111010102020200,
1211001211001020,
1211001211003000,
1211001211001020,
1211010102020200, //8
1001202111012000,
1001202110102022,
1010202210102022,
1100202110102000,
1001202111012000,
1001202110102022,
1010202210102022,
1100202110102000, //16
1210202110102020,
1021202110102010,
1210202110102010,
1021210202121020,
1210202110102020,
1021202110102020,
1022102210102020,
1111000020001000, //24
#GOGOSTART
3600,
000000000000000008000000000000400000100000400000,
0010212021102012,
1001102110102000,
3600,
000000000000000008000000000000400000100000400000,
0010212021100020,
3003003000000000, //32
3700,
00080414,
0010212021102012,
1001102110102000,
3700,
00080414,
0010212021102012, //40
1011102110102000,
3011212011012010,
1011212012012010,
1011212011012010,
1011212012012010,
3,
0,
0,
0, //48
#GOGOEND
#END
COURSE:Hard
LEVEL:5
BALLOON:13,13,16,16
SCOREINIT:970,4040
SCOREDIFF:300
#START
30030033,
30030040,
30030033,
7000000000000800,
1111001111001010,
1111001111004000,
1111001111001010,
7000000000000800, //8
10211120,
10200022,
10221022,
1202,
10211120,
10200022,
10221022,
10220120, //16
10211120,
11210120,
10211121,
00200110,
10211120,
11210120,
11212120,
3021, //24
#GOGOSTART
3600,
000000000000000008000000000000400000000000400000,
0000111010102010,
1001101000002000,
3600,
000000000000000008000000000000400000000000400000,
0000111010100000,
3003003000000000, //32
3700,
00080404,
0000111010102010,
1001101000002000,
3700,
00080404,
0000111010102000,
1011101000000000, //40
3000200110102010,
10210121,
1000200110102010,
10210121,
3,
0,
0,
0, //48
#GOGOEND
#END
COURSE:Normal
LEVEL:4
BALLOON:9,9,12,12
SCOREINIT:1170,6650
SCOREDIFF:598
#START
30030030,
30030030,
30030030,
7000000000000800,
40040040,
40040040,
40040040,
7000000000000800, //8
1110,
1002,
1212,
1,
1110,
1002,
1212,
1, //16
10111000,
10010000,
10101011,
0,
10111000,
10010000,
1112,
3022, //24
#GOGOSTART
3600,
000000000000000008000000000000100000000000100000,
00101100,
1001001000000000,
3600,
000000000000000008000000000000100000000000100000,
00101100,
3003003000000000, //32
3700,
00080202,
00202200,
2002002000000000,
3700,
00080202,
00202200,
2002002000000000, //40
30201110,
10110000,
10201110,
10110010,
3,
0,
0,
0, //48
#GOGOEND
#END
COURSE:Easy
LEVEL:3
BALLOON:6,6,11,11
SCOREINIT:1250,11250
SCOREDIFF:1010
#START
30030000,
30030000,
30030000,
70000800,
40040000,
40040000,
40040000,
70000800, //8
11,
1,
12,
1,
11,
1,
12,
1, //16
1110,
10010000,
1110,
1,
2220,
20020000,
1100,
3, //24
#GOGOSTART
6,
000000000000000008000000000000000000000000000000,
0110,
10010000,
6,
000000000000000008000000000000000000000000000000,
0110,
30030000, //32
7,
00080000,
0220,
20020000,
7,
00080000,
0220,
20020000, //40
3011,
10010000,
1011,
10010000,
3,
0,
0,
0, //48
#GOGOEND
#END