Files
ESE/07 Game Music/Leviathan/Leviathan.tja
T
GanYiZhongandClaude Opus 5 7320a9448e Add TITLEZH_TW / SUBTITLEZH_TW (Traditional Chinese titles)
Add Traditional Chinese title (1276 charts) and subtitle (900 charts)
header fields. Header additions only; no chart data changed.

Co-Authored-By: Claude Opus 5 <noreply@anthropic.com>
2026-09-17 12:42:55 +08:00

859 lines
10 KiB
Plaintext

//TJADB Project
TITLE:Leviathan
TITLEJA:Leviathan
TITLEZH:Leviathan
TITLEZH_TW:Leviathan
SUBTITLE:--NeLiME/DEEMO
SUBTITLEJA:NeLiME 「DEEMO」より
SUBTITLEZH:NeLiME 出自"DEEMO"
SUBTITLEZH_TW:--NeLiME 來自「DEEMO」
WAVE:Leviathan.ogg
BPM:176
OFFSET:-1.453
DEMOSTART:59.309
//SONG_ID:demlev
//Shinuchi: 3750/2120/1670/1170
COURSE:Oni
LEVEL:9
BALLOON:2,2,4,4,4,3,3
SCOREINIT:430,1320
SCOREDIFF:100
#START
#BARLINEOFF
#MEASURE 2/4
0122,
#BARLINEON
#MEASURE 4/4
1000001020021020,
10022212,
1221,
1000002220201020,
10002012,
1000002220201020,
#BPMCHANGE 168
3
#BPMCHANGE 155
2
#BPMCHANGE 150
3
#BPMCHANGE 140
2,
#MEASURE 7/4
#BPMCHANGE 130
300000000000000020000000
#BPMCHANGE 120
#SCROLL 0.6
700000000800
#BPMCHANGE 130
#SCROLL 0.72
700000000800
#BPMCHANGE 110
#SCROLL 0.84
700000000080
#BPMCHANGE 120
#SCROLL 1
700000000080
#BPMCHANGE 153
#SCROLL 8
600000000800, //9
#MEASURE 4/4
#BPMCHANGE 185
#SCROLL 1
32122122,
2010101040004021,
222122,
121212121212,
3000111220201112,
21112010,
32222222,
32223322,
#MEASURE 1/4
3,
#SCROLL 5.5
0,
#SCROLL 5
0,
#SCROLL 4.5
0,
#SCROLL 4
0,
#SCROLL 3.5
0,
#SCROLL 3
0,
#SCROLL 2.5
0, //25
#MEASURE 4/4
#SCROLL 2
3000
#SCROLL 1
0001,
02102202,
1000100022102012,
21021002,
3010201022102050,
000008000000100000000000200200100000200000200000,
3000100020202022,
2022201022102010,
1120102010201022,
1120102010201120,
1120100010201022,
1120112010001000,
1010101012101011,
1210111010101110,
1220100020101022,
1011101022102010, //41
500000000008000000200200100000100100100000200000,
10121120,
3000300011111222,
100200100200100020001000100000100000200000100000,
30301212,
100222100200100200100200,
1012102010201020,
100000100000100000200000500000000008000000000000,
1000202020222020,
22222222,
2011202022112211,
2011200022221112,
2010102020002220,
2010102020040020,
2020212021202122,
2000002210000000, //57
34034034,
000000300000400000000020200100200100200200100000,
34334334,
300300400222200200200200,
34034034,
03422222,
34334334,
3030400011111222,
2,
0000000000002222, //67
#GOGOSTART
1020102210102020,
1020111110101020,
1022101120211020,
1022102211111020,
500000000000000008000000100000200000100200100000,
1011201020221020,
1010202011221020,
1111222210201122,
1020112210102020,
1020111110101020,
1112221112221020,
3003003003003030,
500000000000000000000000000008000000100200100000,
7000802122221020,
11781178,
500000000008000000200000100000100000100100100100, //83
#GOGOEND
500008000000200000100000200000200000100000500000,
000008000000200000200000100000200000100200200000,
500008000000200000100200200000200200100000500008,
0010222212201210,
1020101122101022,
1210221011101220,
1110101020101022,
2211101022112210,
1120102010201022,
1120102010201120,
1120102210121022,
1210112210201111,
1020202010111011,
1110111010101110,
1020102010101012,
1122102211221022, //99
#MEASURE 2/4
0
#SCROLL 2.5
3,
#MEASURE 1/4
#SCROLL 4.5
0,
#SCROLL 2.25
500008000000,
#SCROLL 4
0,
#SCROLL 2
000000500008,
#SCROLL 3.5
0,
#SCROLL 1.75
0,
#SCROLL 3
0,
#SCROLL 1.5
0,
#SCROLL 2.5
0,
#SCROLL 1.25
0,
#SCROLL 2
0,
#SCROLL 1
0,
#SCROLL 1.5
0,
#SCROLL 0.75
0,
#MEASURE 5/4
#SCROLL 1
0, //115
#END
COURSE:Hard
LEVEL:7
BALLOON:
SCOREINIT:460,1860
SCOREDIFF:118
#START
#BARLINEOFF
#MEASURE 2/4
0122,
#BARLINEON
#MEASURE 4/4
1000001020020020,
10022212,
1221,
1000002220201020,
10002012,
1000002220201020,
#BPMCHANGE 168
3
#BPMCHANGE 155
2
#BPMCHANGE 150
3
#BPMCHANGE 140
2,
#MEASURE 7/4
#BPMCHANGE 130
300000000000000020000000
#BPMCHANGE 120
#SCROLL 0.6
500008000000
#BPMCHANGE 130
#SCROLL 0.72
500008000000
#BPMCHANGE 110
#SCROLL 0.84
500008000000
#BPMCHANGE 120
#SCROLL 1
500008000000
#BPMCHANGE 153
#SCROLL 8
600000000800, //9
#MEASURE 4/4
#BPMCHANGE 185
#SCROLL 1
32122022,
2010100040004011,
122122,
500000000000000000000000000000000000000008000000,
3000111010001110,
10112010,
30222022,
32203322,
#MEASURE 1/4
3,
#SCROLL 4.5
0,
#SCROLL 4
0,
#SCROLL 3.5
0,
#SCROLL 3
0,
#SCROLL 2.5
0,
#SCROLL 2
0,
#SCROLL 1.5
0, //25
#MEASURE 4/4
#SCROLL 1
30000001,
02102202,
10102001,
01021002,
31212005,
000008000000100000000000200000200000200000000000,
30101115,
000000000008000000100000200000100000200000000000,
1110100010201020,
02121010,
1110100010201020,
0020111010001000,
11111011,
0000100010101110,
10102112,
01012120, //41
1000002220101020,
10120120,
3000300011101020,
12101121,
30301212,
02221012,
1011100010201020,
100000000000100000200000500000000008000000000000,
1000202020222000,
22222022,
2011100020102010,
2011100022201000,
2010102020002220,
2010102020040020,
2020222020202220,
2000002220000000, //57
33033033,
000000300000300000000050000000000000000008000000,
33033033,
03302222,
33033033,
03322222,
33033033,
000000300000300000000000500000000000000008000000,
2,
0, //67
#GOGOSTART
1020102220102000,
12101112,
10212212,
1000200011101020,
500000000000000008000000100000200000100100100000,
10212020,
1010200011101020,
1000111010001000,
1020111020201000,
12101112,
1002001002001020,
3003003003003030,
500000000000000000000000000008000000100000000000,
1000002220001000,
11112222,
500000000008000000200000100000100000100000100000, //83
#GOGOEND
10212211,
0000202010202220,
10212211,
0010222020001000,
1020101020101022,
2000200010102220,
10102112,
0011101020102000,
1110100010201020,
02121210,
1110100010201020,
0000111010001000,
1020202010001011,
1010101010001110,
1000100010101022,
22021121, //99
#MEASURE 2/4
03,
#MEASURE 1/4
#SCROLL 4.5
0,
#SCROLL 2.25
0,
#SCROLL 4
0,
#SCROLL 2
0,
#SCROLL 3.5
0,
#SCROLL 1.75
0,
#SCROLL 3
0,
#SCROLL 1.5
0,
#SCROLL 2.5
0,
#SCROLL 1.25
0,
#SCROLL 2
0,
#SCROLL 1
0,
#SCROLL 1.5
0,
#SCROLL 0.75
0,
#MEASURE 5/4
#SCROLL 1
0, //115
#END
COURSE:Normal
LEVEL:7
BALLOON:
SCOREINIT:480,2430
SCOREDIFF:128
#START
#BARLINEOFF
#MEASURE 2/4
0222,
#BARLINEON
#MEASURE 4/4
2000000020020020,
20022220,
1221,
10022020,
10002011,
10022220,
#BPMCHANGE 168
3
#BPMCHANGE 155
2
#BPMCHANGE 150
3
#BPMCHANGE 140
2,
#MEASURE 7/4
#BPMCHANGE 130
300000000000000000000000
#BPMCHANGE 120
#SCROLL 1.08
500008000000
#BPMCHANGE 130
#SCROLL 1
500008000000
#BPMCHANGE 110
#SCROLL 1.18
500008000000
#BPMCHANGE 120
#SCROLL 1.08
500008000000
#BPMCHANGE 153
#SCROLL 0.85
600008000000, //9
#MEASURE 4/4
#BPMCHANGE 185
#SCROLL 1
30222022,
2144,
11,
500000000000000000000000000000000000000008000000,
30111011,
10111010,
3222,
30203300,
#MEASURE 1/4
3,
#SCROLL 4.5
0,
#SCROLL 4
0,
#SCROLL 3.5
0,
#SCROLL 3
0,
#SCROLL 2.5
0,
#SCROLL 2
0,
#SCROLL 1.5
0, //25
#MEASURE 4/4
#SCROLL 1
30000001,
02202200,
10102001,
01022000,
31111005,
000008000000100000000000200000200000200000000000,
30101105,
000000000008000000000000200000200000200000000000,
11101011,
02201010,
11101011,
02201010,
11101011,
00101110,
10102202,
01011020, //41
10022022,
20020020,
30301110,
22202220,
30302202,
02222010,
11101010,
100000000000200000000000500000000008000000000000,
10222020,
22222020,
20202220,
22202220,
22202020,
22202000,
22202222,
22, //57
33033033,
000000300000300000000050000000000000000008000000,
33033033,
03302220,
33033033,
03302220,
33033033,
000000300000300000000000500000000000000008000000,
1,
0, //67
#GOGOSTART
10101110,
11101111,
10222010,
10201111,
500000000000000008000000100000100000100000000000,
10222020,
11101111,
10111010,
10101110,
11101111,
10222010,
3003003003003030,
500000000000000000000000000008000000100000000000,
10022020,
11101111,
500000000008000000000000100000100000100000100000, //83
#GOGOEND
10202201,
00222020,
10202201,
00222010,
10111011,
00202220,
10101111,
01011110,
11101011,
02201010,
11101011,
00222010,
10201011,
00101011,
10101111,
02011011, //99
#MEASURE 2/4
03,
#MEASURE 1/4
#SCROLL 4.5
0,
#SCROLL 2.25
0,
#SCROLL 4
0,
#SCROLL 2
0,
#SCROLL 3.5
0,
#SCROLL 1.75
0,
#SCROLL 3
0,
#SCROLL 1.5
0,
#SCROLL 2.5
0,
#SCROLL 1.25
0,
#SCROLL 2
0,
#SCROLL 1
0,
#SCROLL 1.5
0,
#SCROLL 0.75
0,
#MEASURE 5/4
#SCROLL 1
0, //115
#END
COURSE:Easy
LEVEL:4
BALLOON:4
SCOREINIT:440,4460
SCOREDIFF:133
#START
#BARLINEOFF
#MEASURE 2/4
0,
#BARLINEON
#MEASURE 4/4
22,
2022,
22,
2022,
2022,
2022,
#BPMCHANGE 168
4
#BPMCHANGE 155
0
#BPMCHANGE 150
4
#BPMCHANGE 140
0,
#MEASURE 7/4
#BPMCHANGE 130
300000000000000000000000
#BPMCHANGE 120
#SCROLL 1.08
500008000000
#BPMCHANGE 130
#SCROLL 1
500008000000
#BPMCHANGE 110
#SCROLL 1.18
500008000000
#BPMCHANGE 120
#SCROLL 1.08
500008000000
#BPMCHANGE 153
#SCROLL 0.85
600008000000, //99
#MEASURE 4/4
#BPMCHANGE 185
#SCROLL 1
3022,
2240,
11,
500000000000000000000000000000000008000000000000,
300000000000500000000008000000000000500000000008,
0110,
32,
4244,
#MEASURE 1/4
0,
#SCROLL 4.5
0,
#SCROLL 4
0,
#SCROLL 3.5
0,
#SCROLL 3
0,
#SCROLL 2.5
0,
#SCROLL 2
0,
#SCROLL 1.5
0, //25
#MEASURE 4/4
#SCROLL 1
30000001,
0,
10000001,
02,
30101001,
0111,
30101005,
000000000000000000000000000000000008000000000000,
10101001,
0220,
10101001,
0220,
10101001,
0110,
10101002,
02002000, //41
1022,
20020020,
4450,
000000000000000000000000000000000008000000000000,
30300202,
02002000,
1110,
2220,
12,
2220,
2022,
2220,
2220,
2220,
2022,
22, //57
30030030,
000000300000000000000050000000000008000000000000,
30030030,
03002000,
30030030,
03002000,
30030030,
000000300000000000000000500000000008000000000000,
1,
0, //67
#GOGOSTART
1110,
1101,
12,
1011,
500000000008000000000000100000000000100000000000,
12,
1110,
100000000000500000000008000000000000000000000000,
1110,
1101,
12,
3003003003003000,
500000000000000000000008000000000000100000000000,
12,
1111,
500000000000000000000000000000000008000000000000, //83
#GOGOEND
10101001,
0220,
10101001,
0220,
10101001,
0220,
10101001,
01001010,
10101001,
0220,
10101001,
0220,
10101007,
00080000,
10101001,
01001010, //99
#MEASURE 2/4
03,
#MEASURE 1/4
#SCROLL 4.5
0,
#SCROLL 2.25
0,
#SCROLL 4
0,
#SCROLL 2
0,
#SCROLL 3.5
0,
#SCROLL 1.75
0,
#SCROLL 3
0,
#SCROLL 1.5
0,
#SCROLL 2.5
0,
#SCROLL 1.25
0,
#SCROLL 2
0,
#SCROLL 1
0,
#SCROLL 1.5
0,
#SCROLL 0.75
0,
#MEASURE 5/4
#SCROLL 1
0, //115
#END