Files
ESE/07 Game Music/Mappy Medley/Mappy Medley.tja
T
2023-06-15 19:00:23 -05:00

488 lines
7.4 KiB
Plaintext

//TJADB Project
TITLE:Mappy Medley
TITLEJA:マッピーメドレー
SUBTITLE:--Nobuyuki Ohnogi/Mappy
BPM:112.5
WAVE:Mappy Medley.ogg
OFFSET:-2.289
DEMOSTART:10.821
COURSE:Oni
LEVEL:8
BALLOON:3,22
SCOREINIT:480
SCOREDIFF:123
#START
101201102202101201101202,
101201102202100102102102,
,
04000000,
100200100201001100102200,
100200101201000202200200,
100200100201001100102200,
100000200000100010000050000000000000000800000000,
101201102202101201101202,
100101200102000300300300,
100200100201001100102200,
100200101201000202200200,
100200100201001100102200,
100000200000100010000050000000000000000800000000,
101201102202101201101202,
100101200102000300300300,
100000400001100100000200,
10101122,
100000400001100200000200,
10101122,
101201102202101201101202,
101201102202100102102102,
100200100201001100102200,
100200101201000202200200,
100200100201001100102200,
100000200000100010000050000000000000000800000000,
101201102202101201101202,
#MEASURE 3/4
,
#MEASURE 5/4
101202100200102100400000000000,
#MEASURE 4/4
#BPMCHANGE 150
100000100100200020002000100000000000200000000200,
#MEASURE 6/4
500000000000000000000000000000000008000000000000
#BPMCHANGE 180
000000000000000000000000,
#GOGOSTART
#MEASURE 4/4
1022201020201020,
1022201022201010,
1022201020201020,
1022101020201020,
1022201020201020,
1022201022201010,
1022201020201020,
1022101010201020,
10221212,
11210120,
1000201022201020,
1022101010201020,
10221212,
11210120,
2022202020202020,
11113333,
4022201020201020,
1022201022201010,
1022201020201020,
1022101020201020,
1022201020201020,
1022201022201010,
1022201020201020,
1022101010201020,
10221212,
11010120,
10102100,
#MEASURE 6/4
400000000700800000000000
#BPMCHANGE 166.68
#SCROLL 0.9
000000000001,
#MEASURE 4/4
#BPMCHANGE 150
#SCROLL 1
001101101101101101001002,
002202202202202202002001,
001101101101101101001002,
002202202202202202002001,
001101101002002202202001,
#MEASURE 6/4
001101101101200102000000
#GOGOEND
#BPMCHANGE 118.4
000000000000,
#BPMCHANGE 112.5
#MEASURE 4/4
100200100201001100102200,
100000200000100010200700000000000000000000000000,
#MEASURE 3/4
008,
#MEASURE 4/4
101201101202100000300000,
#MEASURE 2/4
,
#MEASURE 4/4
#BPMCHANGE 171.4
#SCROLL 0.8
101202100400,
102101200300,
101202100400,
102101200300,
101202100000,
#END
COURSE:Hard
LEVEL:7
BALLOON:2,10,10,4,4,18
SCOREINIT:610
SCOREDIFF:148
#START
101101100000101101100000,
101100101100100100200200,
,
04000000,
100000100001001100100100,
100200101101000000000000,
100000200001001100100200,
100000200000100010000050000000000000000008000000,
101101100000101101100000,
000101100101000300300300,
100000100001001100100100,
100200101101000000000000,
100000200001001100100200,
100000200000100010000050000000000000000008000000,
101101100000101101100000,
000101100101000300300300,
100000200001100100000200,
10101122,
100000200001100200000200,
10101122,
101101100000101101100000,
101100101100100100200200,
100000100001001100100100,
100200101101000200000200,
100000200001001100100200,
100000200000100010000050000000000000000008000000,
101101100000101101100000,
#MEASURE 3/4
2,
#MEASURE 5/4
101101100100000100400000000000,
#BPMCHANGE 150
#MEASURE 4/4
200222200200,
#MEASURE 6/4
500000000000000000000000000000000008000000000000
#BPMCHANGE 180
000000000000000000000000,
#MEASURE 4/4
#GOGOSTART
10212210,
10210210,
10212212,
10212122,
10212210,
10212210,
10212212,
10212121,
10221212,
11020120,
10202212,
10212121,
10221212,
11010120,
20202202,
11111111,
10212210,
10212210,
10212212,
10212122,
10212210,
10212210,
10212212,
10212121,
10221212,
11020120,
10102100,
#MEASURE 6/4
40078000
#BPMCHANGE 166.68
#SCROLL 0.9
0000,
#BPMCHANGE 150
#SCROLL 1
#MEASURE 4/4
500000000000000000000000000000000008000000000000,
7008,
500000000000000000000000000000000008000000000000,
7008,
70087008,
#MEASURE 6/4
600000000000000000000000000000000008000000000000
#BPMCHANGE 118.4
#GOGOEND
000000000000000000000000,
#BPMCHANGE 112.5
#MEASURE 4/4
100000100001001100100100,
100200100007000000000000,
#MEASURE 3/4
008,
#MEASURE 4/4
101100101100200000300000,
#MEASURE 2/4
,
#BPMCHANGE 171.4
#SCROLL 0.8
#MEASURE 4/4
101201100300,
102101100400,
101201100300,
102101100400,
101201100000,
#END
COURSE:Normal
LEVEL:6
BALLOON:7,7,2,2,13
SCOREINIT:800
SCOREDIFF:223
#START
11221122,
100000100000200000200000500000000000000000008000,
,
,
10101212,
10101122,
10101212,
100000000000100000000000500000000000000008000000,
12101210,
10000222,
10101212,
10101122,
10101212,
100000000000100000000000500000000000000008000000,
12101210,
10000222,
10201101,
10101120,
10201101,
10101120,
11221122,
100000100000200000200000500000000000000008000000,
10101212,
10101122,
10101212,
100000000000100000000000500000000000000008000000,
12101210,
#MEASURE 3/4
3,
#MEASURE 5/4
1122012000,
#BPMCHANGE 150
#MEASURE 4/4
0022,
#MEASURE 6/4
500000000000000000000000000000000008000000000000
#BPMCHANGE 180
000000000000000000000000,
#MEASURE 4/4
#GOGOSTART
10010020,
10010000,
10101111,
,
10010020,
10010000,
10101101,
,
0222,
11010000,
20202222,
,
4,
11010000,
20202205,
000000000000000000000000000000000008000000000000,
10010020,
10010000,
10101111,
,
10010020,
10010000,
10101111,
,
0222,
11010100,
10101100,
#MEASURE 6/4
23
#BPMCHANGE 166.68
#SCROLL 0.9
0,
#BPMCHANGE 150
#SCROLL 1
#MEASURE 4/4
500000000000000000000000000000000008000000000000,
7008,
500000000000000000000000000000000008000000000000,
7008,
70087008,
#MEASURE 6/4
600000000000000000000000000000000008000000000000
#BPMCHANGE 118.4
#GOGOEND
000000000000000000000000,
#BPMCHANGE 112.5
#MEASURE 4/4
10101212,
10107000,
#MEASURE 3/4
008,
#MEASURE 4/4
12121030,
#MEASURE 2/4
,
#BPMCHANGE 171.4
#SCROLL 0.8
#MEASURE 4/4
100101100000,
200202200000,
100101100000,
200202200000,
100101100000,
#END
COURSE:Easy
LEVEL:5
BALLOON:5,5,11
SCOREINIT:650
SCOREDIFF:208
#START
1212,
100000000000200000000000500000000000000000008000,
,
,
10101110,
1120,
10101110,
500000000000000000000008000000000000000000000000,
12,
3,
10101110,
1120,
10101110,
500000000000000000000008000000000000000000000000,
12,
3,
10201100,
1110,
10201100,
1120,
1212,
1210,
10101110,
1120,
10101110,
500000000000000000000008000000000000000000000000,
12,
#MEASURE 3/4
3,
#MEASURE 5/4
1010022000,
#BPMCHANGE 150
#MEASURE 4/4
,
#MEASURE 6/4
500000000000000000000000000000000008000000000000
#BPMCHANGE 180
000000000000000000000000,
#MEASURE 4/4
#GOGOSTART
10010000,
10010000,
1110,
2220,
10010000,
10010000,
1110,
2222,
2,
10010000,
2220,
4,
3,
10020000,
20202005,
000000000000000000000000000008000000000000000000,
20020000,
10010000,
1110,
2220,
10010000,
10010000,
1110,
2222,
2,
10020000,
1110,
#MEASURE 6/4
23
#BPMCHANGE 166.68
#SCROLL 0.9
0,
#BPMCHANGE 150
#SCROLL 1
#MEASURE 4/4
500000000000000000000000000000000008000000000000,
7008,
500000000000000000000000000000000008000000000000,
7008,
43,
#MEASURE 6/4
600000000000000000000000000000000008000000000000
#BPMCHANGE 118.4
#GOGOEND
000000000000000000000000,
#BPMCHANGE 112.5
#MEASURE 4/4
10101110,
1170,
#MEASURE 3/4
008,
#MEASURE 4/4
1213,
#MEASURE 2/4
,
#BPMCHANGE 171.4
#SCROLL 0.8
#MEASURE 4/4
1110,
2220,
1110,
2220,
1120,
#END