Files
ESE/07 Game Music/Mythmaker/Mythmaker.tja
T
2026-09-09 16:46:55 -04:00

350 lines
4.0 KiB
Plaintext
Raw Blame History

This file contains ambiguous Unicode characters
This file contains Unicode characters that might be confused with other characters. If you think that this is intentional, you can safely ignore this warning. Use the Escape button to reveal them.
//TJADB Project
TITLE:Mythmaker
TITLEJA:Mythmaker
SUBTITLE:--Linda AI-CUE feat. Chiaki Takahashi/THE iDOLM@STER MUST SONGS: Red Album
SUBTITLEJA:
BPM:114
WAVE:Mythmaker.ogg
OFFSET:-2.302
DEMOSTART:69.669
SCENEPRESET:IMAS
COURSE:Oni
LEVEL:8
BALLOON:
SCOREINIT:650,1940
SCOREDIFF:173
#START
0,
0,
2010220201011020,
2010220201012222,
1010210201011020,
2010210201012222,
1010210201011020,
1101211201112222, //8
1011211020101020,
1011211020102220,
1001200101012220,
2111201101012222,
1011211020101020,
1011211020112020,
1022200022202010,
100000000000100000200000200200200200200200202020, //16
1011211020101020,
1011211020102220,
1001200101012220,
2111201101012222,
1011211020101020,
1011211020112020,
1022200022202010,
100200200200100200200200102020200200200200202020, //24
1011211020101000,
1011211020102222,
1000102022022202,
2202022022202222,
1011211020101000,
1011211020102222,
1020202022022210,
100200200200100200200200101010100200200200202020, //32
1011200211100020,
2010202101202222,
1011200211100020,
2010221202201222,
1011200211100020,
2010220201202222,
1020220122012222,
1, //40
#GOGOSTART
10200200,
20220220,
10200200,
20020220,
1110100100101011,
22110210,
1100102000202022,
1001000000100000, //48
1200200101202000,
1000201001102222,
1200200102102000,
1001201001201022,
1200201202102000,
1000200001002222,
1200200102102000,
1001200001202222, //56
#GOGOEND
1100100000102000,
1001000001002020,
0, //59
#END
COURSE:Hard
LEVEL:6
BALLOON:
SCOREINIT:1040,3950
SCOREDIFF:320
#START
0,
0,
2000200200000000,
2000200200000000,
1010110101011000,
1010110101011010,
1010110101011010,
0202,
1011011000101000,
1011011000102020,
1001000000000000,
0,
1011011000101000,
1011011000101010,
02202201,
1122,
1011011000101000,
1011011000102020,
1001000000000000,
0,
1011011000101000,
1011011000101010,
02202201,
1122,
1011011000101000,
1011011000102020,
1100,
0,
1011011000101000,
1011011000101010,
02202201,
1222,
1011100011100020,
2000202200202000,
0011100011100020,
2000202200202020,
0011100011100020,
2000220200202000,
500000000000000000000000000000000000000008000000,
3,
#GOGOSTART
10200200,
20220220,
10200200,
20020220,
0010100100101010,
22110010,
5,
000000000000000000000000000000000000000008000000,
00200220,
10110110,
00200220,
10110110,
5,
000000000000000000000008000000000000300000000000,
6,
000000000000000000000000000000000000000000000008,
#GOGOEND
0002,
00000022,
0,
#END
COURSE:Normal
LEVEL:5
BALLOON:
SCOREINIT:1050,5360
SCOREDIFF:368
#START
0,
0,
2200,
2200,
11100010,
11100010,
11100010,
0202,
10110110,
10110110,
1,
0,
10110110,
10110110,
02202201,
1122,
10110110,
10110110,
1,
0,
10110110,
10110110,
02202201,
1122,
10110110,
10110110,
2200,
0,
10110110,
10110111,
01101101,
1222,
11101002,
2000200200202000,
01101002,
20220222,
01101102,
2000200200202000,
500000000000000000000000000000000000000008000000,
3,
#GOGOSTART
1,
20220220,
1,
20020220,
10100110,
10100110,
5,
000000000000000000000000000000000000000008000000,
00200220,
10110110,
00200220,
10110110,
5,
000000000000000000000008000000000000300000000000,
6,
000000000000000000000000000000000000000000000008,
#GOGOEND
0002,
00000022,
0,
#END
COURSE:Easy
LEVEL:3
BALLOON:
SCOREINIT:910,8200
SCOREDIFF:420
#START
0,
0,
2200,
2200,
1101,
1101,
1101,
0,
1101,
1101,
1,
0,
1101,
1101,
0202,
1122,
1101,
1101,
1,
0,
1101,
1101,
0202,
1122,
1101,
1101,
2200,
0,
1101,
1101,
1110,
1222,
1110,
2222,
0110,
2222,
1110,
2222,
500000000000000000000000000000000000000008000000,
3,
#GOGOSTART
1,
2,
1,
2,
1101,
1101,
5,
000000000000000000000000000000000000000008000000,
0202,
1101,
0202,
1101,
5,
000000000000000000000008000000000000300000000000,
6,
000000000000000000000000000000000000000000000008,
#GOGOEND
0002,
00000022,
0,
#END