Files
ESE/07 Game Music/Nanairo Button/Nanairo Button AC16.tja
T

416 lines
5.1 KiB
Plaintext

//TJADB Project
TITLE:Nanairo Button -AC16 Chart-
TITLEJA:七彩ボタン
TITLEZH:七彩ボタン
SUBTITLE:--Tetsuya Uchida feat. Iori Minase/THE iDOLM@STER 2
SUBTITLEJA:AC16譜面 「アイドルマスター」より
BPM:128
WAVE:Nanairo Button.ogg
OFFSET:-2.274
DEMOSTART:61.541
SCENEPRESET:IMAS
//Shinuchi: 6660/4180/2910/2130
COURSE:Oni
LEVEL:7
BALLOON:
SCOREINIT:660,2190
SCOREDIFF:185
#START
#GOGOSTART
10101212,
0020102010001011,
1020100010222010,
0020100010201011,
10101212,
02120210,
1011221100100010,
0010100011102000, //8
#GOGOEND
1022020110102011,
1010201101102000,
1022020110102011,
1010201101102000,
1022202010102010,
0010201101102000,
1020220202202060,
000000000000000000000000000008000000000000000000, //16
1020102210201011,
1020102210201000,
1020102210201011,
1020102210201000,
1020102210201011,
1020102210201000,
34330220,
33430000, //24
1020200010112020,
0020002210112000,
1020200010112020,
0020002210003030,
0010210100202030,
0010120100202030,
0010220100102020,
01130000, //32
#GOGOSTART
1020102210201020,
0020102210201011,
1020102210112010,
0020100010201011,
1020102210201020,
0020102210201000,
1011221100100010,
0010100011102000, //40
#GOGOEND
1020220200102010,
0010200011102000,
11221121,
0010112200202000,
1010210200112020,
01212120,
1010220100200010,
01212100, //48
#BPMCHANGE 127.08
2000202200000020,
#BPMCHANGE 127.9
0020202200000000,
#BPMCHANGE 129.04
2000202200200010,
#BPMCHANGE 128
0010100011102000, //52
#GOGOSTART
1020102210201020,
0020102210201000,
1011221100100010,
0010100011102000,
10010111,
000000500000000000000000000000000008000000000000,
#GOGOEND
1022020110102011,
1010201101102000, //60
1022020110102011,
1010201101102000,
1022202010102030,
0,
0,
0, //66
#END
COURSE:Hard
LEVEL:4
BALLOON:13,13,13
SCOREINIT:660,3120
SCOREDIFF:178
#START
#GOGOSTART
10101212,
02121010,
1020100010222010,
02101210,
10101212,
02120210,
1020101100100070,
000000000000000000000000000000000000080000000000, //8
#GOGOEND
11201121,
01210120,
11201121,
01210220,
1022200010102010,
01210120,
1020220200006000,
000000000000000000000000000000000008000000000000, //16
10201120,
10210120,
10201121,
01210120,
10201120,
10210120,
33330220,
33330000, //24
11100111,
01010120,
22200222,
02020033,
0010110100000030,
0010110100100030,
0010100100006000,
000000000000000008000000000000000000000000000000, //32
#GOGOSTART
12101212,
02121010,
1020100010222010,
02101210,
12101212,
02120210,
1020101100100070,
000000000000000000000000000000000000080000000000, //40
#GOGOEND
11201121,
01210120,
11211121,
01201220,
11201121,
01212020,
11201201,
01212100, //48
#BPMCHANGE 127.08
2000202200000020,
#BPMCHANGE 127.9
0020202200000000,
#BPMCHANGE 129.04
2000202200200050,
#BPMCHANGE 128
000000000000000000000000000008000000000000000000, //52
#GOGOSTART
12101212,
02121010,
1020101100100070,
000000000000000000000000000000000000080000000000,
10010111,
000000500000000000000000000000000008000000000000,
#GOGOEND
11201121,
01210120, //60
11201121,
01210220,
1022200010102030,
0,
0,
0, //66
#END
COURSE:Normal
LEVEL:4
BALLOON:10,10,10
SCOREINIT:750,4600
SCOREDIFF:225
#START
#GOGOSTART
10101110,
1110,
10101110,
2200,
10101110,
1110,
10101107,
000000000000000000000000000000000000080000000000, //8
#GOGOEND
1212,
10101110,
1212,
10202220,
1212,
10101110,
3036,
000000000000000000000000000000000008000000000000, //16
1210,
10111000,
1210,
10111010,
1210,
10111010,
30030000,
30030000, //24
11100111,
01010000,
22200222,
02020003,
0000100100000030,
0000100100000030,
0000100100006000,
000000000000000008000000000000000000000000000000, //32
#GOGOSTART
10101110,
1110,
10101110,
2200,
10101110,
1110,
10101107,
000000000000000000000000000000000000080000000000, //40
#GOGOEND
1212,
10101110,
1212,
10202220,
1212,
10101110,
1212,
1220, //48
#BPMCHANGE 127.08
2,
#BPMCHANGE 127.9
22,
#BPMCHANGE 129.04
20202005,
#BPMCHANGE 128
000000000000000000000000000008000000000000000000, //52
#GOGOSTART
10101110,
1110,
10101107,
000000000000000000000000000000000000080000000000,
10010111,
000000500000000000000000000000000008000000000000,
#GOGOEND
1212,
10101110, //60
1212,
10202220,
30403333,
0,
0,
0, //66
#END
COURSE:Easy
LEVEL:3
BALLOON:6,4,4,4,6,6
SCOREINIT:740,7470
SCOREDIFF:265
#START
#GOGOSTART
1110,
11,
1110,
1100,
1110,
11,
10101007,
000000000000000000000000000000000000080000000000, //8
#GOGOEND
11,
1110,
22,
2220,
11,
1110,
3036,
000000000000000000000000000000000008000000000000, //16
0110,
1110,
0110,
1111,
0110,
1110,
30030000,
30030000, //24
10100001,
01010000,
10100001,
01010007,
000000000000080000000700,
000000000000080000000700,
000000000000080000600000,
000000000000000008000000000000000000000000000000, //32
#GOGOSTART
1110,
11,
2220,
2200,
1110,
11,
10101007,
000000000000000000000000000000000000080000000000, //40
#GOGOEND
11,
1110,
22,
2220,
11,
1110,
22,
2220, //48
#BPMCHANGE 127.08
2,
#BPMCHANGE 127.9
22,
#BPMCHANGE 129.04
20202005,
#BPMCHANGE 128
000000000000000000000000000008000000000000000000, //52
#GOGOSTART
1110,
11,
10101007,
000000000000000000000000000000000000080000000000,
10010005,
000000000000000000000000000008000000000000000000,
#GOGOEND
11,
1110, //60
22,
2220,
30003033,
0,
0,
0, //66
#END