02 Anime Sora no Parade (Fixed Track, Added NORMAL Chart) 07 Game Music Café de Party Night (Fixed Track and TITLE, Added NORMAL Chart) It’s Better to Create One Cute Girl Than to Create the World in 7 Days (Fixed Track and TITLE, Added NORMAL Chart) Kimi to Boku no Mirai (Added Oira Charts) Koku Gin no Tsubasa (Fixed Track and TITLE, Added HARD/NORMAL Chart) Koku Vyrn no Tsubasa (Fixed Title, MANIAC Track, Trimmed MANIAC Chart) Mahou no Note (Fixed Track and TITLE, Added NORMAL Chart) Never Ending Fantasy (Fixed Track, Added NORMAL Chart) Sanbagarasu Otoko Uta (Fixed Track, Added NORMAL Chart) Sora no Michishirube (Added Oira Charts) Souku Hana no Mai (Fixed Track, Added NORMAL Chart) The Dragon Knights (Fixed Track and TITLE, Added NORMAL Chart) The Ultimate (Fixed Track and BPM, Added HARD/NORMAL Chart) Yozora no Shizuku (Fixed Track and BPM, Added NORMAL Chart) Oira Ending (This is the playable credits for the Oira app with its own chart that does not have a fumenwiki article) 09 Namco Original Omochi de Mambo (Updated SUBTITLE[EN])
240 lines
1.4 KiB
Plaintext
240 lines
1.4 KiB
Plaintext
//TJADB Project
|
|
TITLE:Never Ending Fantasy
|
|
TITLEJA:Never Ending Fantasy
|
|
SUBTITLE:--Nobuo Uematsu feat. Inori Minase/Granblue Fantasy
|
|
SUBTITLEJA:オイラ
|
|
BPM:179
|
|
WAVE:Never Ending Fantasy.ogg
|
|
OFFSET:-0.000
|
|
DEMOSTART:62.978
|
|
|
|
COURSE:Hard
|
|
LEVEL:5
|
|
BALLOON:10,6,6
|
|
SCOREINIT:660
|
|
SCOREDIFF:160
|
|
|
|
#START
|
|
0,
|
|
1,
|
|
2,
|
|
1,
|
|
2, //5
|
|
|
|
1,
|
|
2,
|
|
30330306,
|
|
08,
|
|
|
|
1202,
|
|
0202,
|
|
0212,
|
|
10040000, //13
|
|
|
|
1202,
|
|
0202,
|
|
10203333,
|
|
0,
|
|
|
|
12,
|
|
12,
|
|
10015000,
|
|
08, //21
|
|
|
|
12,
|
|
12,
|
|
1111,
|
|
58,
|
|
|
|
12,
|
|
12,
|
|
10015000,
|
|
08, //29
|
|
|
|
12,
|
|
12,
|
|
1111,
|
|
30033000,
|
|
|
|
33330000,
|
|
20120000,
|
|
33330000,
|
|
20020100, //37
|
|
|
|
10201120,
|
|
10201120,
|
|
10110200,
|
|
10110200,
|
|
|
|
1111,
|
|
2222,
|
|
7,
|
|
8,
|
|
33330044,
|
|
44000120, //47
|
|
|
|
#GOGOSTART
|
|
3111,
|
|
30220000,
|
|
3111,
|
|
30220000,
|
|
|
|
3111,
|
|
11110100,
|
|
30330407,
|
|
08, //55
|
|
|
|
1111,
|
|
10220000,
|
|
1111,
|
|
10220001,
|
|
|
|
1111,
|
|
11110100,
|
|
30330407,
|
|
08,
|
|
3, //64
|
|
|
|
6,
|
|
0,
|
|
0,
|
|
8,
|
|
|
|
1202,
|
|
0202,
|
|
0202,
|
|
1212, //72
|
|
|
|
1222,
|
|
1222,
|
|
1222,
|
|
1222,
|
|
|
|
3222,
|
|
3222,
|
|
3333,
|
|
4444, //80
|
|
|
|
5,
|
|
0,
|
|
0,
|
|
0,
|
|
#BARLINEOFF
|
|
8, //85
|
|
#END
|
|
|
|
|
|
COURSE:Normal
|
|
LEVEL:3
|
|
BALLOON:
|
|
SCOREINIT:1800
|
|
SCOREDIFF:450
|
|
|
|
#START
|
|
0,
|
|
1,
|
|
0,
|
|
1,
|
|
0, //5
|
|
|
|
1,
|
|
1,
|
|
1,
|
|
0,
|
|
|
|
0,
|
|
0,
|
|
0,
|
|
0, //13
|
|
|
|
1,
|
|
1,
|
|
1,
|
|
0202,
|
|
|
|
1,
|
|
1,
|
|
1,
|
|
2, //21
|
|
|
|
1,
|
|
1,
|
|
1,
|
|
11,
|
|
|
|
1,
|
|
1,
|
|
1,
|
|
2, //29
|
|
|
|
1,
|
|
1,
|
|
11,
|
|
1,
|
|
|
|
2,
|
|
0,
|
|
2,
|
|
0, //37
|
|
|
|
1,
|
|
1,
|
|
0202,
|
|
0202,
|
|
|
|
0202,
|
|
0202,
|
|
1,
|
|
1,
|
|
1001,
|
|
0, //47
|
|
|
|
#GOGOSTART
|
|
11,
|
|
1,
|
|
11,
|
|
1,
|
|
|
|
11,
|
|
1,
|
|
20020002,
|
|
0, //55
|
|
|
|
11,
|
|
1,
|
|
11,
|
|
1,
|
|
|
|
11,
|
|
1,
|
|
20020002,
|
|
0,
|
|
1, //64
|
|
|
|
1,
|
|
0,
|
|
0,
|
|
0,
|
|
|
|
1,
|
|
0,
|
|
1,
|
|
0, //72
|
|
|
|
0222,
|
|
0222,
|
|
0222,
|
|
2222,
|
|
|
|
0222,
|
|
0222,
|
|
11,
|
|
1, //80
|
|
|
|
5,
|
|
0,
|
|
0,
|
|
0,
|
|
#BARLINEOFF
|
|
8, //85
|
|
#END |