Files
ESE/07 Game Music/Next Life/Next Life.tja
T
2026-09-09 16:46:55 -04:00

1017 lines
11 KiB
Plaintext

//TJADB Project
TITLE:Next Life
TITLEJA:Next Life
SUBTITLE:--Akitaka Tohyama feat. Manami Numakura/THE iDOLM@STER SHINY FESTA
SUBTITLEJA:「アイドルマスター」より
BPM:147
WAVE:Next Life.ogg
OFFSET:-1.804
DEMOSTART:76.897
SCENEPRESET:IMAS
COURSE:Oni
LEVEL:10
BALLOON:
SCOREINIT:410,1150
SCOREDIFF:103
NOTESDESIGNER3:Kuboken
#START
21121221,
#BARLINEOFF
#SCROLL 0.83
21211221,
#SCROLL 0.67
21122112,
#SCROLL 0.5
21211221, //4
#MEASURE 1/16
#SCROLL 1
#GOGOSTART
3,
#BARLINEON
#SCROLL 0.98
0,
#SCROLL 0.95
0,
#SCROLL 0.91
0,
#SCROLL 0.86
0,
#SCROLL 0.91
0,
#SCROLL 0.95
0,
#SCROLL 0.98
0, //12
#SCROLL 1
0,
#SCROLL 0.98
0,
#SCROLL 0.95
0,
#SCROLL 0.91
0,
#SCROLL 0.86
0,
#SCROLL 0.91
0,
#SCROLL 0.95
0,
#SCROLL 0.98
0, //20
#SCROLL 1
0,
#SCROLL 0.98
0,
#SCROLL 0.95
0,
#SCROLL 0.91
0,
#SCROLL 0.86
0,
#SCROLL 0.91
0,
#SCROLL 0.95
0,
#SCROLL 0.98
0, //28
#SCROLL 1
0,
#SCROLL 0.98
0,
#SCROLL 0.95
0,
#SCROLL 0.91
0,
#SCROLL 0.86
0,
#SCROLL 0.91
0,
#SCROLL 0.95
0,
#SCROLL 0.98
0, //36
#GOGOEND
#MEASURE 4/4
#SCROLL 1
1021102211201021,
1022112021112022,
1120102012201021,
1022112022122212,
100000200100100000200100100000102020200000200000,
100000202020100000200000200100100100200000100200,
1021101021112111,
200000200200000112200200, //44
1011201011012012,
1011201022112021,
1011201011012012,
1011201022122122,
1012201022112012,
0210201022112012,
0210201022112112,
200200100000200000100100200200101020200000200000, //52
1011201011012012,
1011201022112021,
1011201011012012,
1011201022122121,
2012201022112012,
0210201022112012,
0210201022112112,
200200100000200000100100200200101020200000200100, //60
1021201011012012,
1021201022112021,
2021221211212212,
1221201122122212,
1221221221221121,
100222200200000200100000, //66
#SCROLL 2
100100100100100100100100
#SCROLL 2.5
101010101010101010101010, //67
#MEASURE 2/4
#SCROLL 3
#BARLINEOFF
222222222222,
#BARLINEON
#MEASURE 1/16
#SCROLL 2.5
0,
#SCROLL 3
0,
#SCROLL 3.5
0,
#SCROLL 4
0,
#SCROLL 3
0,
#SCROLL 2.5
0,
#SCROLL 2
0,
#SCROLL 1.5
0, //76
#MEASURE 4/4
#SCROLL 1
#GOGOSTART
1021021021201022,
1012021012201012,
1021021021201022,
1012021012201012,
1021021021221022,
1012021012221012,
1021021221221221,
101010202020200000100200200200100102020100000000, //84
1021021022110210,
2021221021210210,
1012021012210211,
2011201220112212, //88
2021021021201022,
1212021012201012,
#GOGOEND
1221
#GOGOSTART
0210
#GOGOEND
2120
#GOGOSTART
1022,
#GOGOEND
1221
#GOGOSTART
2212
#GOGOEND
1222
#GOGOSTART
1011, //92
1021021022110211,
2021221021210212,
1012021012210211,
2011201220112212, //96
2021021021201022,
1212021012201012,
#GOGOEND
1221
#GOGOSTART
0210
#GOGOEND
2120
#GOGOSTART
1022,
#GOGOEND
100200200100
#GOGOSTART
200200100200
#GOGOEND
100200200200
#GOGOSTART
100000101010, //100
1021221022110211,
2012221021210212,
1021221012210211,
2011201220112212, //104
2021021021201022,
1212021012201012,
#GOGOEND
1221
#GOGOSTART
0210
#GOGOEND
2120
#GOGOSTART
1022,
#GOGOEND
100200100200
#GOGOSTART
200200100200
#GOGOEND
100100200100
#GOGOSTART
200000101010, //108
200000200200000200200000000100000000100000101010,
200000200200000200200000000100000000100000101010,
200000200200101010200100100200202020100200100100,
#MEASURE 2/4
101010202020100200200100,
#GOGOEND
#MEASURE 4/4
#BARLINEOFF
0, //113
#END
COURSE:Hard
LEVEL:7
BALLOON:13
SCOREINIT:590,2230
SCOREDIFF:155
#START
0,
0,
0,
0,
#MEASURE 1/16
#GOGOSTART
0,
#SCROLL 0.98
0,
#SCROLL 0.95
0,
#SCROLL 0.91
0,
#SCROLL 0.86
0,
#SCROLL 0.91
0,
#SCROLL 0.95
0,
#SCROLL 0.98
0, //12
#SCROLL 1
0,
#SCROLL 0.98
0,
#SCROLL 0.95
0,
#SCROLL 0.91
0,
#SCROLL 0.86
0,
#SCROLL 0.91
0,
#SCROLL 0.95
0,
#SCROLL 0.98
0, //20
#SCROLL 1
0,
#SCROLL 0.98
0,
#SCROLL 0.95
0,
#SCROLL 0.91
0,
#SCROLL 0.86
0,
#SCROLL 0.91
0,
#SCROLL 0.95
0,
#SCROLL 0.98
0, //28
#SCROLL 1
0,
#SCROLL 0.98
0,
#SCROLL 0.95
0,
#SCROLL 0.91
0,
#SCROLL 0.86
0,
#SCROLL 0.91
0,
#SCROLL 0.95
0,
#SCROLL 0.98
0, //36
#GOGOEND
#MEASURE 4/4
#SCROLL 1
9009,
8,
01410141,
01410232,
01410141,
01410141,
01410141,
20220000,
1011200010112000,
1011201000202000,
1011201000202000,
1011202010112020,
1011201000002000,
0022200000002000,
0022200000002000,
2000202000222020,
1011200010112000,
1011201000202000,
1011202010112020,
1011201000202000,
1011201000002000,
0022200000002000,
2022202000002000,
2022202000222020,
1011200010112000,
1011201000202000,
1011202010112020,
1011201000102020,
1022201022201020,
1022200020002000,
#SCROLL 2
500000000000000000000008
#SCROLL 4
500000000000000000000008,
#MEASURE 2/4
#SCROLL 8
#BARLINEOFF
500000000000000008000000,
#BARLINEON
#MEASURE 1/16
#SCROLL 2.5
0,
#SCROLL 3
0,
#SCROLL 3.5
0,
#SCROLL 4
0,
#SCROLL 3
0,
#SCROLL 2.5
0,
#SCROLL 2
0,
#SCROLL 1.5
0, //76
#MEASURE 4/4
#SCROLL 1
#GOGOSTART
4003003003004040,
4003003003004040,
4003003003004040,
4003003003004040,
4003003003004040,
4003003003004040,
4003003003004040,
#SCROLL 2
600000000000000000000000000000000008000000000000,
#SCROLL 1
0010102020110020,
2010102020110020,
2010102020110022,
2022202010112020,
#SCROLL 2
5,
000000000000000000000000000008000000000000000000,//90
#GOGOEND
#SCROLL 1
0 //91-1
#GOGOSTART
3 //91-2
#GOGOEND
0 //91-3
#GOGOSTART
3, //91-4
#GOGOEND
0 //92-1
#GOGOSTART
3 //92-2
#GOGOEND
0 //92-3
#GOGOSTART
3,
0010102020110020,
2010102020110020,
2010102020110022,
2022202010112020,
#SCROLL 2
5,
000000000000000000000000000008000000000000000000,//98
#GOGOEND
#SCROLL 1
0 //99-1
#GOGOSTART
3 //99-2
#GOGOEND
0 //99-3
#GOGOSTART
3, //99-4
#GOGOEND
0 //100-1
#GOGOSTART
3 //100-2
#GOGOEND
0 //100-3
#GOGOSTART
3, //100-4
0020201010220020,
2010102020110020,
2010102020110022,
2022202010112020,
#SCROLL 2
5,
000000000000000000000000000000000000000000000008,//106
#GOGOEND
#SCROLL 1
0 //107-1
#GOGOSTART
3 //107-2
#GOGOEND
0 //107-3
#GOGOSTART
3, //107-4
#GOGOEND
0 //108-1
#GOGOSTART
3 //108-2
#GOGOEND
0 //108-3
#GOGOSTART
3, //108-4
2002002001001011,
2002002001001011,
2002002001001011,
#MEASURE 2/4
20001111,
#GOGOEND
#MEASURE 4/4
#BARLINEOFF
0, //113
#END
COURSE:Normal
LEVEL:4
BALLOON:10,3
SCOREINIT:720,4290
SCOREDIFF:243
#START
0,
0,
0,
0,
#MEASURE 1/16
#GOGOSTART
0,
#SCROLL 0.98
0,
#SCROLL 0.95
0,
#SCROLL 0.91
0,
#SCROLL 0.86
0,
#SCROLL 0.91
0,
#SCROLL 0.95
0,
#SCROLL 0.98
0, //12
#SCROLL 1
0,
#SCROLL 0.98
0,
#SCROLL 0.95
0,
#SCROLL 0.91
0,
#SCROLL 0.86
0,
#SCROLL 0.91
0,
#SCROLL 0.95
0,
#SCROLL 0.98
0, //20
#SCROLL 1
0,
#SCROLL 0.98
0,
#SCROLL 0.95
0,
#SCROLL 0.91
0,
#SCROLL 0.86
0,
#SCROLL 0.91
0,
#SCROLL 0.95
0,
#SCROLL 0.98
0, //28
#SCROLL 1
0,
#SCROLL 0.98
0,
#SCROLL 0.95
0,
#SCROLL 0.91
0,
#SCROLL 0.86
0,
#SCROLL 0.91
0,
#SCROLL 0.95
0,
#SCROLL 0.98
0, //36
#GOGOEND
#MEASURE 4/4
#SCROLL 1
9009,
8,
0303,
0343,
0303,
0303,
0303,
20220000,
0111,
20200110,
10200110,
1122,
1102,
0202,
0202,
20220220,
01101010,
20200110,
1122,
10100110,
2102,
0202,
0202,
20220220,
0111,
20200110,
1122,
10100110,
1221,
0,
#SCROLL 2
500000000000000000000008
#SCROLL 4
500000000000000000000008,
#MEASURE 2/4
#SCROLL 8
#BARLINEOFF
500000000000000008000000,
#BARLINEON
#MEASURE 1/16
#SCROLL 2.5
0,
#SCROLL 3
0,
#SCROLL 3.5
0,
#SCROLL 4
0,
#SCROLL 3
0,
#SCROLL 2.5
0,
#SCROLL 2
0,
#SCROLL 1.5
0, //76
#MEASURE 4/4
#SCROLL 1
#GOGOSTART
4303,
4303,
4303,
4303,
4303,
4303,
4303,
#SCROLL 2
600000000000000000000000000000000008000000000000,
#SCROLL 1
01101001,
1110,
01101001,
1122,
#SCROLL 2
5,
000000000000000000000000000008000000000000000000,//90
#GOGOEND
#SCROLL 1
0//91-1
#GOGOSTART
3//91-2
#GOGOEND
0//91-3
#GOGOSTART
3,//91-4
#GOGOEND
0//92-1
#GOGOSTART
3//92-2
#GOGOEND
0//92-3
#GOGOSTART
3,//92-4
01101001,
1110,
01101001,
1122,
#SCROLL 2
5,
000000000000000000000000000008000000000000000000,//98
#GOGOEND
#SCROLL 1
0//99-1
#GOGOSTART
3//99-2
#GOGOEND
0//99-3
#GOGOSTART
3,//99-4
#GOGOEND
0//100-1
#GOGOSTART
3//100-2
#GOGOEND
0//100-3
#GOGOSTART
3, //100-4
01101002,
2220,
01101001,
1122,
#SCROLL 2
5,
000000000000000000000000000000000000000000000008,//106
#GOGOEND
#SCROLL 1
0//107-1
#GOGOSTART
3//107-2
#GOGOEND
0//107-3
#GOGOSTART
3,//107-4
#GOGOEND
0//108-1
#GOGOSTART
3//108-2
#GOGOEND
0//108-3
#GOGOSTART
3, //108-4
2002002001001000,
2002002001001000,
2002002001001000,
#MEASURE 2/4
17,
#GOGOEND
#MEASURE 4/4
#BARLINEOFF
8, //113
#END
COURSE:Easy
LEVEL:3
BALLOON:10,3
SCOREINIT:510,4900
SCOREDIFF:180
#START
0,
0,
0,
0,
#MEASURE 1/16
#GOGOSTART
0,
#SCROLL 0.98
0,
#SCROLL 0.95
0,
#SCROLL 0.91
0,
#SCROLL 0.86
0,
#SCROLL 0.91
0,
#SCROLL 0.95
0,
#SCROLL 0.98
0, //12
#SCROLL 1
0,
#SCROLL 0.98
0,
#SCROLL 0.95
0,
#SCROLL 0.91
0,
#SCROLL 0.86
0,
#SCROLL 0.91
0,
#SCROLL 0.95
0,
#SCROLL 0.98
0, //20
#SCROLL 1
0,
#SCROLL 0.98
0,
#SCROLL 0.95
0,
#SCROLL 0.91
0,
#SCROLL 0.86
0,
#SCROLL 0.91
0,
#SCROLL 0.95
0,
#SCROLL 0.98
0, //28
#SCROLL 1
0,
#SCROLL 0.98
0,
#SCROLL 0.95
0,
#SCROLL 0.91
0,
#SCROLL 0.86
0,
#SCROLL 0.91
0,
#SCROLL 0.95
0,
#SCROLL 0.98
0, //36
#GOGOEND
#MEASURE 4/4
#SCROLL 1
9009,
8,
0303,
0303,
0303,
0303,
0303,
0,
0111,
1101,
1101,
1122,
1102,
0202,
0202,
2244,
0111,
1101,
1122,
1101,
2102,
0202,
0202,
2244,
0111,
1101,
1122,
1101,
1221,
0,
#SCROLL 2
500000000000000000000008
#SCROLL 4
500000000000000000000008,
#MEASURE 2/4
#SCROLL 8
#BARLINEOFF
500000000000000008000000,
#BARLINEON
#MEASURE 1/16
#SCROLL 2.5
0,
#SCROLL 3
0,
#SCROLL 3.5
0,
#SCROLL 4
0,
#SCROLL 3
0,
#SCROLL 2.5
0,
#SCROLL 2
0,
#SCROLL 1.5
0, //76
#MEASURE 4/4
#SCROLL 1
#GOGOSTART
4303,
4303,
4303,
4303,
4303,
4303,
4303,
#SCROLL 2
600000000000000000000000000000000008000000000000,
#SCROLL 1
0110,
1110,
0110,
1122,
#SCROLL 2
5,
000000000000000000000000000008000000000000000000,//90
#GOGOEND
#SCROLL 1
0//91-1
#GOGOSTART
3//91-2
#GOGOEND
0//91-3
#GOGOSTART
3,//91-4
#GOGOEND
0//92-1
#GOGOSTART
3//92-2
#GOGOEND
0//92-3
#GOGOSTART
3, //92-4
0110,
1110,
0110,
1122,
#SCROLL 2
5,
000000000000000000000000000008000000000000000000,//98
#GOGOEND
#SCROLL 1
0//99-1
#GOGOSTART
3//99-2
#GOGOEND
0//99-3
#GOGOSTART
3,//99-4
#GOGOEND
0//100-1
#GOGOSTART
3//100-2
#GOGOEND
0//100-3
#GOGOSTART
3, //100-4
0110,
2220,
0110,
1122,
#SCROLL 2
5,
000000000000000000000000000000000000000000000008,//106
#GOGOEND
#SCROLL 1
0//107-1
#GOGOSTART
3//107-2
#GOGOEND
0//107-3
#GOGOSTART
3,//107-4
#GOGOEND
0//108-1
#GOGOSTART
3//108-2
#GOGOEND
0//108-3
#GOGOSTART
3, //108-4
2201,
2201,
2201,
#MEASURE 2/4
27,
#GOGOEND
#MEASURE 4/4
#BARLINEOFF
8,
#END