01 Pop Silent Majority Soup Swan Watari-dori 02 Anime Blood Circulator Chouzetsu☆Dynamic! Hanamaru Biyori! Hikari Are Paradisus-Paradoxum S・M・I・L・E Tomo yo ~Kono Saki mo Zutto... (moved from Pop folder) Tonkatsu DJ Agetarou Try Everything You Got a Otomodachi 03 Vocaloid Alien Alien 04 Children and Folk EXCITE (moved from Anime folder) 05 Variety FANTASTIC BABY (moved from Pop folder) Pen-Pineapple-Apple-Pen (moved from Children&Folk folder) conflict 07 Game Music Abandoned Temple Final 2nd Anzu no Uta Chain Chronicle Total War Medley Famicom Medley Mitsuboshi☆☆★ Pokemon Sun and Moon Medley Super Dragon Ball Heroes Theme Song Tsubomi Yumemiru Rapsodia ~Alma no Michibiki~ 09 Namco Original Amaterasu Donko no First Date Gasshou Stabofe! No Gravity SAKURA EXHAUST VICTORIA
527 lines
6.3 KiB
Plaintext
527 lines
6.3 KiB
Plaintext
//TJADB Project
|
|
TITLE:Pokémon Sun & Moon Medley
|
|
TITLEJA:「ポケットモンスター サン・ムーン」メドレー
|
|
SUBTITLE:--Marimo Laboratory/Pokémon Sun & Moon
|
|
SUBTITLEJA:
|
|
BPM:146
|
|
WAVE:Pokemon Sun and Moon Medley.ogg
|
|
OFFSET:-1.842
|
|
DEMOSTART:21.646
|
|
|
|
//shinuchi: 8500/5180/2550/1820
|
|
|
|
COURSE:Oni
|
|
LEVEL:8
|
|
BALLOON:5,5,34,10
|
|
SCOREINIT:610,1940
|
|
SCOREDIFF:150
|
|
|
|
#START
|
|
#BARLINEOFF
|
|
#MEASURE 1/4
|
|
1111,
|
|
#BARLINEON
|
|
#MEASURE 4/4
|
|
1000300000111000,
|
|
300300111111,
|
|
|
|
10011200,
|
|
2220001010000011,
|
|
1010100010000011,
|
|
2000002220000000,
|
|
|
|
10011204,
|
|
2220111010100011,
|
|
1111,
|
|
#MEASURE 5/4
|
|
#BPMCHANGE 145.21
|
|
41121122
|
|
#BPMCHANGE 182
|
|
00, //11
|
|
|
|
#MEASURE 4/4
|
|
#GOGOSTART
|
|
2222222211111111,
|
|
500000000000000000000000000000000000000008000000, //13
|
|
#GOGOEND
|
|
|
|
10210120,
|
|
10217008,
|
|
10210120,
|
|
10217008,
|
|
|
|
10221122,
|
|
1010002000102011,
|
|
1010201110102000,
|
|
2022201110102022, //21
|
|
|
|
12021122,
|
|
10120121,
|
|
1000000022201110,
|
|
2220111000102022,
|
|
|
|
10211202,
|
|
1020002000201022,
|
|
10211202,
|
|
1020112000202000, //29
|
|
|
|
11002100,
|
|
1020101120101000,
|
|
11401140,
|
|
1010401110400020,
|
|
|
|
1111102000200022,
|
|
12020202,
|
|
1111102000200022,
|
|
12020202, //37
|
|
|
|
1111100022222000,
|
|
1111101022222020,
|
|
1111101022222020,
|
|
1111200040400060,
|
|
|
|
0,
|
|
000000000000000000000000000000000008000000700000,
|
|
0,
|
|
000000000000000000000000000000000000000000000008,
|
|
#BPMCHANGE 178
|
|
0,
|
|
0004, //47
|
|
|
|
#GOGOSTART
|
|
1001201000102000,
|
|
1001201000112010,
|
|
1001201000102000,
|
|
1001202210102000,
|
|
|
|
1011201000111010,
|
|
21121120,
|
|
1011201000111010,
|
|
21121120, //55
|
|
|
|
10201120,
|
|
1110200011112000,
|
|
10201120,
|
|
1110202210202022,
|
|
|
|
1001201000102000,
|
|
1001201000112010,
|
|
1001201000102000,
|
|
1011202210202010, //63
|
|
|
|
1000201010102011,
|
|
11211212,
|
|
2022101020221010,
|
|
2022101020221111,
|
|
|
|
1000201011102000,
|
|
1000201011102010,
|
|
1000201011102000,
|
|
1000201011202022, //71
|
|
|
|
1414,
|
|
1040004000201111,
|
|
2022101020221010,
|
|
#MEASURE 6/4
|
|
2022101020221122
|
|
#GOGOEND
|
|
00000000,
|
|
|
|
#MEASURE 4/4
|
|
#BPMCHANGE 135
|
|
#GOGOSTART
|
|
100010001000200020002000700000000000000000000008,
|
|
#GOGOEND
|
|
0,
|
|
#BARLINEOFF
|
|
0,
|
|
0, //79
|
|
#END
|
|
|
|
|
|
COURSE:Hard
|
|
LEVEL:6
|
|
BALLOON:22,26,7
|
|
SCOREINIT:650,2770
|
|
SCOREDIFF:170
|
|
|
|
#START
|
|
#BARLINEOFF
|
|
#MEASURE 1/4
|
|
0,
|
|
#BARLINEON
|
|
#MEASURE 4/4
|
|
3000300000111000,
|
|
300000000000300000000000600000000000000008000000,
|
|
|
|
30011200,
|
|
1110001010000010,
|
|
01101001,
|
|
4000002220000000,
|
|
|
|
10011200,
|
|
1110111010100010,
|
|
1111,
|
|
#MEASURE 5/4
|
|
#BPMCHANGE 145.21
|
|
41121122
|
|
#BPMCHANGE 182
|
|
00, //11
|
|
|
|
#MEASURE 4/4
|
|
#GOGOSTART
|
|
7,
|
|
0008, //13
|
|
#GOGOEND
|
|
|
|
10010010,
|
|
12,
|
|
10010010,
|
|
12,
|
|
|
|
10221020,
|
|
11020120,
|
|
10220220,
|
|
11210120, //21
|
|
|
|
12021022,
|
|
10120120,
|
|
10002211,
|
|
22110202,
|
|
|
|
10210202,
|
|
12020212,
|
|
10210202,
|
|
12120220, //29
|
|
|
|
11002000,
|
|
12102000,
|
|
11401140,
|
|
11401402,
|
|
|
|
11120202,
|
|
12020202,
|
|
11120202,
|
|
12020202, //37
|
|
|
|
10201122,
|
|
10201222,
|
|
10201122,
|
|
10204406,
|
|
|
|
0,
|
|
000000000000000000000000000000000008000000700000,
|
|
0,
|
|
000000000000000000000000000000000000000000000008,
|
|
#BPMCHANGE 178
|
|
0,
|
|
0004, //47
|
|
|
|
#GOGOSTART
|
|
10210120,
|
|
10210122,
|
|
10210120,
|
|
10211120,
|
|
|
|
10210111,
|
|
20120120,
|
|
10210111,
|
|
20120120, //55
|
|
|
|
10201120,
|
|
1000200011102000,
|
|
10201120,
|
|
1000200011102020,
|
|
|
|
10210120,
|
|
10210122,
|
|
10210120,
|
|
11210220, //63
|
|
|
|
10201120,
|
|
11210202,
|
|
22112211,
|
|
22112211,
|
|
|
|
10201120,
|
|
1000200011102000,
|
|
10201120,
|
|
1000200011102020, //71
|
|
|
|
1414,
|
|
14040012,
|
|
22112212,
|
|
#MEASURE 6/4
|
|
22112211
|
|
#GOGOEND
|
|
0000,
|
|
|
|
#MEASURE 4/4
|
|
#BPMCHANGE 135
|
|
#GOGOSTART
|
|
100010001000100010001000700000000000000000000008,
|
|
#GOGOEND
|
|
0,
|
|
#BARLINEOFF
|
|
0,
|
|
0, //79
|
|
#END
|
|
|
|
|
|
COURSE:Normal
|
|
LEVEL:4
|
|
BALLOON:14,9,14,14,36,9
|
|
SCOREINIT:930,6780
|
|
SCOREDIFF:300
|
|
|
|
#START
|
|
#BARLINEOFF
|
|
#MEASURE 1/4
|
|
0,
|
|
#MEASURE 4/4
|
|
0,
|
|
0,
|
|
|
|
#BARLINEON
|
|
30011000,
|
|
00011005,
|
|
000000000000000000000000000000000008000000000000,
|
|
3,
|
|
|
|
10011000,
|
|
00001105,
|
|
000000000000000000000000000000000008000000000000,
|
|
#MEASURE 5/4
|
|
#BPMCHANGE 145.21
|
|
4000
|
|
#BPMCHANGE 182
|
|
0, //11
|
|
|
|
#MEASURE 4/4
|
|
#GOGOSTART
|
|
7,
|
|
0008, //13
|
|
#GOGOEND
|
|
|
|
10010010,
|
|
12,
|
|
10010010,
|
|
12,
|
|
|
|
10010010,
|
|
10010010,
|
|
20220220,
|
|
500000000000000000000000000000000008000000000000, //21
|
|
|
|
10010010,
|
|
10010010,
|
|
27,
|
|
00000800,
|
|
|
|
10010100,
|
|
10010010,
|
|
10010100,
|
|
20220220, //29
|
|
|
|
12,
|
|
12,
|
|
3434,
|
|
30403300,
|
|
|
|
7,
|
|
0008,
|
|
7,
|
|
0008, //37
|
|
|
|
33,
|
|
44,
|
|
33,
|
|
49,
|
|
|
|
0,
|
|
0,
|
|
000000000000000000000000000000000000000009000000,
|
|
000000000000000000000000000000000000000000000008,
|
|
#BPMCHANGE 178
|
|
0,
|
|
0, //47
|
|
|
|
#GOGOSTART
|
|
10010020,
|
|
10010020,
|
|
10010020,
|
|
500000000000000000000000000000000008000000000000,
|
|
|
|
10010110,
|
|
20020020,
|
|
10010110,
|
|
20020020, //55
|
|
|
|
33,
|
|
44,
|
|
33,
|
|
33040000,
|
|
|
|
10010020,
|
|
10010020,
|
|
10010020,
|
|
11020000, //63
|
|
|
|
11,
|
|
11010202,
|
|
5,
|
|
000000000000000000000000000000000008000000000000,
|
|
|
|
1212,
|
|
1210,
|
|
1212,
|
|
1210, //71
|
|
|
|
3434,
|
|
33040000,
|
|
6,
|
|
#MEASURE 6/4
|
|
000000000000000000000000000000000000000000000008
|
|
#GOGOEND
|
|
000000000000000000000000,
|
|
|
|
#MEASURE 4/4
|
|
#BPMCHANGE 135
|
|
#GOGOSTART
|
|
900000000000000000000000000000000009000000000008,
|
|
#GOGOEND
|
|
0,
|
|
#BARLINEOFF
|
|
0,
|
|
0, //79
|
|
#END
|
|
|
|
|
|
COURSE:Easy
|
|
LEVEL:2
|
|
BALLOON:10,7,11,10,28,7
|
|
SCOREINIT:890,10960
|
|
SCOREDIFF:460
|
|
|
|
#START
|
|
#BARLINEOFF
|
|
#SCROLL 0.8
|
|
#MEASURE 1/4
|
|
0,
|
|
#MEASURE 4/4
|
|
0,
|
|
0,
|
|
|
|
#BARLINEON
|
|
31,
|
|
00001005,
|
|
000000000000000000000000000008000000000000000000,
|
|
3,
|
|
|
|
11,
|
|
00001005,
|
|
000000000000000000000000000008000000000000000000,
|
|
#MEASURE 5/4
|
|
#BPMCHANGE 145.21
|
|
4000
|
|
#BPMCHANGE 182
|
|
0, //11
|
|
|
|
#MEASURE 4/4
|
|
#GOGOSTART
|
|
7,
|
|
00000800, //13
|
|
#GOGOEND
|
|
|
|
1,
|
|
11,
|
|
1,
|
|
11,
|
|
|
|
10010000,
|
|
10010000,
|
|
5,
|
|
000000000000000000000000000008000000000000000000, //21
|
|
|
|
10010000,
|
|
10010000,
|
|
27,
|
|
00000800,
|
|
|
|
20020000,
|
|
20020000,
|
|
20020000,
|
|
20020000, //29
|
|
|
|
12,
|
|
12,
|
|
34,
|
|
34,
|
|
|
|
7,
|
|
0008,
|
|
7,
|
|
00000800, //37
|
|
|
|
33,
|
|
44,
|
|
33,
|
|
49,
|
|
|
|
0,
|
|
0,
|
|
000000000000000000000000000000000000000009000000,
|
|
000000000000000000000000000000000000000000000008,
|
|
#BPMCHANGE 178
|
|
0,
|
|
0, //47
|
|
|
|
#GOGOSTART
|
|
10010000,
|
|
10010000,
|
|
10010000,
|
|
2,
|
|
|
|
10010000,
|
|
20020000,
|
|
10010000,
|
|
20020000, //55
|
|
|
|
33,
|
|
44,
|
|
33,
|
|
600000000000000000000000000008000000000000000000,
|
|
|
|
10010000,
|
|
10010000,
|
|
10010000,
|
|
2, //63
|
|
|
|
11,
|
|
2,
|
|
5,
|
|
000000000000000000000000000008000000000000000000,
|
|
|
|
12,
|
|
12,
|
|
12,
|
|
12, //71
|
|
|
|
1212,
|
|
1,
|
|
5,
|
|
#MEASURE 6/4
|
|
000000000000000000000000000000000000000000000008
|
|
#GOGOEND
|
|
000000000000000000000000,
|
|
|
|
#BPMCHANGE 135
|
|
#MEASURE 4/4
|
|
#GOGOSTART
|
|
900000000000000000000000000000000009000000000008,
|
|
#GOGOEND
|
|
0,
|
|
#BARLINEOFF
|
|
0,
|
|
0, //79
|
|
#END |