Files
ESE/07 Game Music/ROTTERDAM NATION FOO MIX/ROTTERDAM NATION FOO MIX.tja
T

683 lines
7.4 KiB
Plaintext

//TJADB Project
TITLE:ROTTERDAM NATION -FOO MIX-
TITLEJA:ROTTERDAM NATION(FOO MIX)
SUBTITLE:--Shinji Hosoe (Sampling Masters)/RIDGE RACER
SUBTITLEJA:
BPM:184.64
WAVE:ROTTERDAM NATION FOO MIX.ogg
OFFSET:-1.535
DEMOSTART:2.830
COURSE:Oni
LEVEL:10
BALLOON:
SCOREINIT:
SCOREDIFF:
#START
,
12121212,
12121111,
12121212,
12121121,
12121212,
12121111,
12121212,
2020222020202020,
12121212,
12121111,
12121212,
12121121,
12121212,
12121111,
#BRANCHSTART p,75,90
#N
12121211,
3000300022222010,
11201120,
1011101020202000,
1011101020202000,
11202000,
12021222,
12021111,
12021222,
12022222,
12021222,
12021111,
12021222,
#E
12121211,
3000300022222010,
11201120,
1011101020202000,
1011101022222000,
1010200020001011,
1020002010222020,
1020002011101020,
1020002010222020,
1020002022202020,
1020002010222020,
1020002011101020,
1020002010222020,
#M
12121211,
3000300022222010,
11201120,
1011101020202000,
1011101022222000,
1010200020001011,
1020002010222020,
1020002011221020,
1020002010222020,
1020002022112020,
1020002010222020,
1020002011221020,
1020002010222020,
//MEASURE 8/4 doesn't work in this branch
#BRANCHSTART p,75,90
#N
1020002022222020,
12021212,
21011212,
12021212,
21022120,
12021212,
21011212,
12021212,
1,
#BARLINEOFF
,
#E
1020002022112020,
1020002010201120,
2010001011201020,
1020002010201120,
2010002022102000,
1020002010201120,
2010001011201020,
1020002010201120,
1,
#BARLINEOFF
,
#M
1020002022112020,
1020002010201120,
2010001011201020,
1020002010201120,
2010002022102000,
1020002010201120,
2010001011201020,
1020002010201120,
1,
#BARLINEOFF
,
#BRANCHSTART p,75,90
#N
#BARLINEON
#BPMCHANGE 201.32
12021212,
21011212,
12021212,
21022120,
12021212,
21011212,
12021212,
,
#BARLINEOFF
,
#E
#BARLINEON
#BPMCHANGE 201.32
1020002010201120,
2010001011201020,
1020002010201120,
2010002022102000,
1020002010201120,
2010001011201020,
1020002010201120,
1,
#BARLINEOFF
,
#M
#BARLINEON
#BPMCHANGE 201.32
1020002010201120,
2010001011201020,
1020002010201120,
2010002022102000,
1020002010201120,
2010001011201020,
1020002010201120,
1,
#BARLINEOFF
,
#BRANCHSTART p,75,90
#N
#GOGOSTART
#BARLINEON
#BPMCHANGE 221.62
11011122,
11221111,
11011122,
11221111,
11011122,
11221111,
11011122,
11221111,
11011122,
11221111,
11011122,
11221111,
11011122,
11221111,
33,
3330,
#E
#GOGOSTART
#BARLINEON
#BPMCHANGE 221.62
11021212,
11221112,
11021212,
11221112,
11021212,
11221112,
11021212,
11221112,
22012121,
22112221,
22012121,
22112221,
22012121,
22112221,
33,
3330,
#M
#GOGOSTART
#BARLINEON
#BPMCHANGE 221.62
11021212,
11221112,
22012121,
22112221,
11021212,
11221112,
22012121,
22112221,
11021212,
11221112,
22012121,
22112221,
11021212,
11221112,
11021111,
3330,
#BRANCHSTART p,75,90
#N
#GOGOEND
#BPMCHANGE 184.63
12121212,
1010101110101000,
12121212,
2020202220202000,
12121212,
1010101110101000,
12121212,
2020202220202000,
3,
11,
3,
11,
#E
#GOGOEND
#BPMCHANGE 184.63
1020102011201020,
1120102110201020,
1020102011201020,
1120102110201020,
1020102011201020,
1120102110201020,
1020102011201020,
1020102220202220,
3,
11,
3,
11,
#M
#GOGOEND
#BPMCHANGE 184.63
1020102011201020,
1120102110201020,
1020102011201020,
1120102110201020,
1020102011201020,
1120102110201020,
1020102011201020,
1020102220202220,
3,
11,
3,
11,
#BRANCHSTART p,75,90
#N
1010111020001000,
12122210,
1010111020001000,
12121021,
1010111020001000,
12122210,
1010111020001000,
1110201000100000,
11201120,
11112120,
11201120,
11112120,
1010222010102220,
11112120,
1110222011102220,
3,
#E
1020111020001000,
12122210,
1020111020001000,
12121021,
1020111020001000,
12122210,
1020111020001000,
1110201000100000,
11201120,
11111212,
1110200011102000,
1110111020102000,
1110222011102220,
1110111020102000,
1111222211112222,
1,
#M
1020111022201000,
1120112020201000,
1020111022201000,
2211221110002010,
1020111022201000,
1120112020201000,
1020111022201000,
1110221100100000,
11201120,
11112120,
1110201011102010,
1110111020102000,
1110222011102220,
1110111020102000,
1111222211112222,
1,
#BRANCHEND
#END
COURSE:Hard
LEVEL:7
BALLOON:5,5,5,5
SCOREINIT:460
SCOREDIFF:120
#START
,
12121110,
11112222,
12121110,
11112220,
12121110,
11112222,
12121110,
1010111110101010,
12121110,
1000100011102000,
12121110,
1000100011102000,
12121110,
1000100011101000,
12121110,
2000200022222000,
11401140,
1011101040404000,
1011101040404000,
11404000,
12021202,
12021111,
12021202,
12022220,
12021202,
12021111,
12021202,
3000000020222000,
12021202,
21011111,
12021202,
21022220,
12021202,
21011111,
12021202,
#MEASURE 8/4
1,
#MEASURE 4/4
#BPMCHANGE 201.32
12021202,
11011111,
12021202,
21022220,
12021202,
21011111,
12021202,
#MEASURE 8/4
1,
#GOGOSTART
#MEASURE 4/4
#BPMCHANGE 221.62
11011111,
7800,
11022222,
7800,
11011111,
22112220,
11011111,
22112220,
11011111,
7800,
11022222,
7800,
11011111,
22112220,
33,
500000000000000000000008000000000000000000000000,
#GOGOEND
#BPMCHANGE 184.63
12101210,
1000101110101000,
12101210,
2000202220202000,
12101210,
1000101110101000,
12101210,
2000202220202000,
3,
11,
3,
11,
1010111020001000,
12122210,
1010111020001000,
12121021,
1010111020001000,
12122210,
1010111020001000,
1110201000100000,
11101110,
1011101010101000,
11101110,
1011101020202000,
11201120,
1011101020102000,
11201120,
3,
#END
COURSE:Normal
LEVEL:6
BALLOON:4,4,12,4,4
SCOREINIT:660
SCOREDIFF:160
#START
,
11102000,
1111,
11102000,
2222,
11102000,
1111,
11102000,
1,
12,
10101110,
12,
10102220,
12,
10101110,
12,
1111,
11101110,
1011,
10002220,
1220,
11010202,
02001010,
11010202,
02002220,
11010202,
02002020,
11010200,
3,
1001,
11010101,
2002,
11020200,
1001,
11010101,
1001,
#MEASURE 8/4
1,
#MEASURE 4/4
#BPMCHANGE 201.32
1001,
11010101,
1001,
11020200,
1001,
11010101,
1001,
#MEASURE 8/4
1,
#GOGOSTART
#MEASURE 4/4
#BPMCHANGE 221.62
11010101,
7800,
11020202,
7800,
9,
,
8,
,
11010101,
7800,
11020202,
7800,
3,
3,
33,
500000000000000000000000000000000008000000000000,
#GOGOEND
#BPMCHANGE 184.63
1111,
10101110,
2222,
20202220,
1111,
10101110,
2222,
20202220,
3,
11,
3,
11,
1021,
10102220,
1021,
10101011,
1021,
10102220,
1021,
10210100,
11101110,
1033,
11101110,
11103030,
11101110,
11111010,
11101110,
3,
#END
COURSE:Easy
LEVEL:5
BALLOON:4,4,7,4,4
SCOREINIT:570
SCOREDIFF:170
#START
,
11100000,
2220,
11100000,
2220,
11100000,
2220,
11100000,
11,
22200000,
1110,
22200000,
1110,
22200000,
1110,
22200000,
1110,
33,
1110,
33,
1110,
11020000,
11020000,
11020000,
11020000,
11020000,
11020000,
11020000,
3,
1001,
11000000,
1001,
11000000,
2002,
22000000,
2002,
#MEASURE 8/4
2,
#MEASURE 4/4
#BPMCHANGE 201.32
1001,
11000000,
1001,
11000000,
2002,
22000000,
2002,
#MEASURE 8/4
2,
#GOGOSTART
#MEASURE 4/4
#BPMCHANGE 221.62
7008,
03,
7008,
03,
9,
,
8,
,
7008,
03,
7008,
03,
1,
1,
33,
500000000000000000000000000000000008000000000000,
#GOGOEND
#BPMCHANGE 184.63
11,
1100,
11,
2200,
11,
1100,
11,
2200,
3,
11,
3,
11,
1022,
,
1011,
,
1022,
,
1011,
2220,
11,
1011,
11,
1011,
11,
10001110,
11,
1,
#END