Files
ESE/07 Game Music/SMOKY THRILL/SMOKY THRILL.tja
T
GanYiZhongandClaude Opus 5 7320a9448e Add TITLEZH_TW / SUBTITLEZH_TW (Traditional Chinese titles)
Add Traditional Chinese title (1276 charts) and subtitle (900 charts)
header fields. Header additions only; no chart data changed.

Co-Authored-By: Claude Opus 5 <noreply@anthropic.com>
2026-09-17 12:42:55 +08:00

458 lines
6.1 KiB
Plaintext

//TJADB Project
TITLE:SMOKY THRILL -VitaMS Chart-
TITLEJA:SMOKY THRILL
TITLEZH:SMOKY THRILL
TITLEZH_TW:SMOKY THRILL
SUBTITLE:--Yuri Misuri feat. Iori Minase/THE iDOLM@STER 2
SUBTITLEJA:VitaMS譜面 「アイドルマスター」より
SUBTITLEZH:出自"偶像大师"
SUBTITLEZH_TW:--來自「偶像大師」
BPM:146
WAVE:SMOKY THRILL.ogg
OFFSET:-1.684
DEMOSTART:49.535
SCENEPRESET:IMAS
COURSE:Oni
LEVEL:8
BALLOON:12,6,8,8,12,8
SCOREINIT:610,1770
SCOREDIFF:153
#START
#BARLINEOFF
#MEASURE 2/4
00202202,
#BARLINEON
#MEASURE 4/4
00200222,
2000200200002020,
0020200020020020,
0000200000202202, //5
00200222,
2000200200002020,
0020200020020070,
0008, //9
1020210110120110,
1020210110120110,
1020221220120210,
1020211270000080,
1010202010210120,
1010202010210120,
1010200040040010,
2010201040040000, //17
1010202010120210,
1010211202112050,
000000000000000000000000000000000000000000000008,
0,
1020210101202010,
1020210100400000,
1020210101202010,
1020210100400000, //25
1010211201201020,
1010211201201020,
1020122101201020,
04040404,
3030110300102101, //30
#GOGOSTART
2010221101102210,
2010221101102112,
0211200030030070,
0000000080102101,
2010221101102210,
2010221101102112,
0211200030030070,
08, //38
#GOGOEND
1110102101203000,
1210202112020120,
2120201200004000,
2010201020112010,
2010201120102210,
2010201020112010,
2010201120102210, //45
2010201120112010,
2010201120102210,
500000000000000000000000000000000000000000000008,
0011,
1002102001202110,
1002102001202110, //51
33030303,
03030303,
0030300030001104,
0000000000202200,
20020020,
2020202200200020,
0020200020020020,
0000000000202202, //59
00020020,
2020202200200020,
0020200020020070,
0008,
3003004000102101, //64
#GOGOSTART
2010221102102210,
2010221102102112,
0211200030030070,
0000000080102101,
2010221102102210,
2010221102112030,
0210202112012030,
0211204030030060,
000000000000000000000000000000000000000000000008,
0300,
#GOGOEND
0, //75
#END
COURSE:Hard
LEVEL:6
BALLOON:13,7,7,7
SCOREINIT:750,2880
SCOREDIFF:208
#START
#BARLINEOFF
#MEASURE 2/4
0,
#BARLINEON
#MEASURE 4/4
0,
0,
0,
0002, //5
0202,
0202,
00200027,
0008, //9
1020200010020000,
1020200010020000,
1020202010020000,
1020202010020000,
1010202010110020,
11220112,
0000400040040000,
2020202040040000, //17
1010202010110220,
11220105,
000000000000000000000000000000000000000000000008,
0,
1010110101101020,
2020220200200000,
1010110101101020,
2020220200400000, //25
1010110101101020,
20220205,
000000000000000000000000000000000000000000000008,
0,
2020220300004000, //30
#GOGOSTART
1010201100102010,
1010201100102010,
0010201030030070,
0000000080101105,
000000000000000000008000000000100000200000100000,
1010201100102010,
0010201030030070,
08, //38
#GOGOEND
1110100000003000,
00000002,
0200202200004000,
0111,
12121010,
20101212,
10121020, //45
1111,
21212111,
2111,
2002202020002000,
1001102000102000,
1001102010201000, //51
33030303,
03030303,
0030300030000004,
0,
2,
00000002,
0020200020020020,
0, //59
2,
00000002,
0020202020020050,
000000000000000000000000000000000000000000000008,
00030040, //64
#GOGOSTART
1010201100102010,
1010201100102010,
0010201030030070,
0000000080101105,
000000000000000000008000000000100000200000100000,
1010201100102010,
01212021,
0010201030030060, //72
000000000000000000000000000000000000000000000008,
0300,
#GOGOEND
0, //75
#END
COURSE:Normal
LEVEL:4
BALLOON:8,4,6,6,4
SCOREINIT:940,5090
SCOREDIFF:323
#START
#BARLINEOFF
#MEASURE 2/4
0,
#BARLINEON
#MEASURE 4/4
0,
0,
0,
0002, //5
0202,
0202,
00200027,
0008, //9
0303,
0303,
0303,
0340,
0101,
10100111,
0220,
2220, //17
0101,
10100105,
000000000000000000000000000000000000000000000008,
0,
1101,
10100200,
1101,
700000000000000008000000000000400000000000000000, //25
1101,
10100105,
000000000000000000000000000000000000000000000008,
0,
2020200300000000, //30
#GOGOSTART
600000000000000000000008000000000000000000000000,
3000000300000010,
0010100010010070,
0000000080000006,
000000000000000000000008000000000000000000000000,
3000000300000010,
0010100010010070,
08,//38
#GOGOEND
1103,
0,
2204,
0111,
1111,
2111,
1112, //45
1111,
2111,
2111,
2111,
500000000000000000000000000000000000000000000008,
0111, //51
33030303,
03030303,
0030300030000004,
0,
2,
00000002,
02202002,
0, //59
2,
00000002,
0020200020020050,
000000000000000000000000000000000000000000000008,
00030000, //64
#GOGOSTART
600000000000000000000008000000000000000000000000,
3000000300000010,
0010100010010070,
0000000080000006,
000000000000000000000008000000000000000000000000,
3000000300000010,
01101002,
0020200020020050, //72
000000000000000000000000000000000000000000000008,
0300,
#GOGOEND
0, //75
#END
COURSE:Easy
LEVEL:3
BALLOON:7,4,4,4,20,4
SCOREINIT:830,7160
SCOREDIFF:320
#START
#BARLINEOFF
#MEASURE 2/4
0,
#BARLINEON
#MEASURE 4/4
0,
0,
0,
0002, //5
0202,
0202,
00200027,
0008, //9
0303,
0303,
0303,
0340,
0101,
1101,
0220,
2220, //17
0101,
10100005,
000000000000000000000000000000000000000000000008,
0,
1101,
10100200,
1101,
700000000000000008000000000000400000000000000000, //25
1101,
10100005,
000000000000000000000000000000000000000000000008,
0,
0, //30
#GOGOSTART
600000000000000000000008000000000000000000000000,
30000001,
00101007,
0000000080000006,
000000000000000000000008000000000000000000000000,
30000001,
00101007,
08,//38
#GOGOEND
1103,
0,
2204,
0111,
1111,
1111,
1111, //45
1111,
1111,
1111,
1111,
500000000000000000000000000000000000000000000008,
0111, //51
9,
09,
8000000000000003,
0,
2,
00000002,
00002002,
0, //59
2,
00000002,
00002005,
000000000000000000000000000000000000000000000008,
00030000, //64
#GOGOSTART
600000000000000000000008000000000000000000000000,
30000001,
00101007,
0000000080000006,
000000000000000000000008000000000000000000000000,
30000001,
00101002,
00202005, //72
000000000000000000000000000000000000000000000008,
0300,
#GOGOEND
0, //75
#END