Files
ESE/07 Game Music/Smile Taisou/Smile Taisou.tja
T
2026-09-09 16:46:55 -04:00

359 lines
4.4 KiB
Plaintext
Raw Blame History

This file contains ambiguous Unicode characters
This file contains Unicode characters that might be confused with other characters. If you think that this is intentional, you can safely ignore this warning. Use the Escape button to reveal them.
//TJADB Project
TITLE:Smile Taisou
TITLEJA:スマイル体操
SUBTITLE:--Makoto Miyazaki feat. Mayako Nigo/THE iDOLM@STER MUST SONGS: Blue Album
SUBTITLEJA:
BPM:145
WAVE:Smile Taisou.ogg
OFFSET:-1.912
DEMOSTART:44.049
SCENEPRESET:IMAS
COURSE:Oni
LEVEL:8
BALLOON:
SCOREINIT:580,1900
SCOREDIFF:155
#START
0,
0,
0,
200000100100000000200000200100200100200000202020,
#GOGOSTART
1020102210201022,
1020100022002212,
1020102210201022,
200000100000100000202020100200100000200200100200, //8
#GOGOEND
1010201010012011,
1010201010120210,
1010201010102011,
11213030,
1010201010012011,
11213030,
1010201010221010,
2010201120222222, //16
11011141,
1010001010104011,
11011141,
1010001010104011,
11011141,
100000100000000000100000200100200100200000202020,
1010401110104011,
21212121,
2021203000000000, //25
#GOGOSTART
1011101120112011,
2011201120212022,
1022102210221000,
3434,
1011101120112011,
2011201120212022,
1022102210221030,
0030302210404022, //33
12121212,
1010201011204022,
10110121,
100000200000200000100000100200100000200200202020,
1011101120112011,
2011201120212022,
1022102210221000,
3434, //41
1011202210112022,
1010201011204022,
11211212,
2010202012101222,
11211212,
200000100000200000200000100200100000100200102020,
21212121,
2010201012112022, //49
10121012,
1020102012221020,
10121012,
100000200000100000101010200100200100200100200100,
10121012,
1020102012021022,
10121011,
200200200000100000202020100200100000400000300000, //57
#GOGOEND
0,
0, //59
#END
COURSE:Hard
LEVEL:6
BALLOON:9,9,9,9,9,9
SCOREINIT:740,3020
SCOREDIFF:213
#START
0,
0,
0,
0,
#GOGOSTART
10121012,
1044,
10121012,
1033,
#GOGOEND
0202,
0000200010110000,
0202,
0233,
0202,
0233,
00201122,
3330,
11011141,
11011141,
11011141,
11011140,
11011141,
11011140,
11401140,
3333,
33330000,
#GOGOSTART
1000100010111000,
1020102010111000,
1020102010111000,
4444,
1000100010111000,
1020102010111000,
12121033,
03300440,
3333,
30330040,
700000000000000008000700,
000000080000,
1000100010111000,
1020102010111000,
1020102010111000,
4444,
3333,
30330040,
700000000000000008000700,
000000080000,
700000000000000008000700,
000000080000,
21212121,
2010201011104000,
10121012,
12104040,
10121012,
12103030,
10121012,
12104040,
10121012,
12103033,
#GOGOEND
0,
0,
#END
COURSE:Normal
LEVEL:5
BALLOON:7,7,7,7,7,7
SCOREINIT:750,4110
SCOREDIFF:265
#START
0,
0,
0,
0,
#GOGOSTART
1111,
1044,
1111,
1033,
#GOGOEND
0202,
0222,
0202,
0233,
0202,
0233,
0202,
3330,
500000000000000000000008000000000000400000000000,
500000000000000000000008000000000000400000000000,
500000000000000000000008000000000000400000000000,
500000000000000000000008000000000000400000000000,
500000000000000000000008000000000000400000000000,
500000000000000000000008000000000000400000000000,
3434,
3333,
33330000,
#GOGOSTART
10101110,
10101110,
10101110,
4444,
10101110,
10101110,
10101033,
03300440,
3333,
30330040,
700000000000000008000700,
000000080000,
10101110,
10101110,
10101110,
4444,
3333,
30330040,
700000000000000008000700,
000000080000,
700000000000000008000700,
000000080000,
1111,
500000000000000000000008000000000000300000000000,
10101011,
1044,
10101011,
1033,
10101011,
1044,
10101011,
10003033,
#GOGOEND
0,
0,
#END
COURSE:Easy
LEVEL:3
BALLOON:5,5,5,5,5,5
SCOREINIT:620,5950
SCOREDIFF:263
#START
0,
0,
0,
0,
#GOGOSTART
11,
1044,
11,
1033,
#GOGOEND
0202,
0222,
0202,
0233,
0202,
0233,
0202,
1110,
500000000000000000000008000000000000400000000000,
500000000000000000000008000000000000400000000000,
500000000000000000000008000000000000400000000000,
500000000000000000000008000000000000400000000000,
500000000000000000000008000000000000400000000000,
500000000000000000000008000000000000400000000000,
0303,
3360,
000000000008000000000000000000000000000000000000,
#GOGOSTART
1111,
1110,
11,
4444,
1111,
1110,
10101003,
00000440,
3333,
3304,
700000000000000008000700,
000000080000,
1111,
1110,
11,
4444,
3333,
3304,
700000000000000008000700,
000000080000,
700000000000000008000700,
000000080000,
1111,
500000000000000000000008000000000000300000000000,
0,
0044,
0,
0033,
0,
0044,
0,
00003033,
#GOGOEND
0,
0,
#END